<?xml version="1.0" standalone="no"?>
<!DOCTYPE svg PUBLIC "-//W3C//DTD SVG 1.1//EN" "http://www.w3.org/Graphics/SVG/1.1/DTD/svg11.dtd" >
<svg xmlns="http://www.w3.org/2000/svg" xmlns:xlink="http://www.w3.org/1999/xlink" version="1.1">
<metadata></metadata>
<defs>
<font id="f37_moonblack_it" horiz-adv-x="1247" >
<font-face units-per-em="2048" ascent="1638" descent="-410" />
<missing-glyph horiz-adv-x="368" />
<glyph unicode="&#xfb01;" horiz-adv-x="1427" d="M176 645l57 328h117l2 12q35 216 158.5 317t351.5 101q124 0 197 -12l-53 -308q-27 2 -64 2q-69 0 -113 -26.5t-51 -73.5l-2 -12h727l-172 -973h-424l115 645h-305l-115 -645h-424l115 645h-117zM1104 1106l67 379h424l-67 -379h-424z" />
<glyph unicode="&#xfb02;" horiz-adv-x="1427" d="M176 645l57 328h117l2 12q35 216 158.5 317t351.5 101q124 0 197 -12l-53 -308q-27 2 -64 2q-69 0 -113 -26.5t-51 -73.5l-2 -12h303l72 409h424l-244 -1382h-424l115 645h-305l-115 -645h-424l115 645h-117z" />
<glyph horiz-adv-x="0" />
<glyph horiz-adv-x="682" />
<glyph unicode=" "  horiz-adv-x="368" />
<glyph unicode="&#x09;" horiz-adv-x="368" />
<glyph unicode="&#xa0;" horiz-adv-x="368" />
<glyph unicode="!" horiz-adv-x="571" d="M92 0l62 344h385l-62 -344h-385zM260 956l66 373h389l-66 -373l-180 -479h-197z" />
<glyph unicode="&#x22;" horiz-adv-x="927" d="M252 840l47 510h363l-134 -510h-276zM694 840l47 510h363l-133 -510h-277z" />
<glyph unicode="#" horiz-adv-x="1196" d="M121 319l47 273h176l59 160h-127l50 272h182l80 209h270l-80 -209h150l80 209h270l-80 -209h115l-49 -272h-170l-60 -160h121l-47 -273h-178l-80 -208h-270l79 208h-149l-80 -208h-270l80 208h-119zM614 592h150l59 160h-149z" />
<glyph unicode="$" horiz-adv-x="1273" d="M80 233l317 263q51 -84 138.5 -131.5t189.5 -47.5q71 0 110 21.5t39 56.5q0 30 -25.5 52.5t-67 36.5t-94.5 32t-108.5 35.5t-108.5 50t-94.5 74t-67 108t-25.5 150.5q0 160 117.5 271t324.5 138l39 220h330l-41 -232q221 -45 350 -192l-295 -252q-116 135 -274 135 q-65 0 -100.5 -19.5t-35.5 -54.5q0 -28 32.5 -50t85 -41t115.5 -40t126 -53.5t115.5 -75t85 -111t32.5 -155.5q0 -183 -131 -294.5t-342 -137.5l-39 -221h-329l40 229q-265 45 -409 235z" />
<glyph unicode="%" horiz-adv-x="1888" d="M209 895q0 184 123 314t303 130q153 0 243.5 -90.5t90.5 -238.5q0 -187 -123.5 -316t-304.5 -129q-151 0 -241.5 91.5t-90.5 238.5zM461 924q0 -57 30.5 -88t83.5 -29q60 1 101 52t41 120q0 56 -31 87.5t-82 31.5q-61 0 -102 -50.5t-41 -123.5zM516 0l776 1329h312 l-777 -1329h-311zM1157 322q0 184 123 314t303 130q152 0 243 -91t91 -239q0 -187 -123.5 -315.5t-304.5 -128.5q-151 0 -241.5 91.5t-90.5 238.5zM1409 350q0 -56 31 -87.5t84 -29.5q60 1 100.5 52.5t40.5 120.5q0 56 -31 87t-82 31q-61 0 -102 -50.5t-41 -123.5z" />
<glyph unicode="&#x26;" horiz-adv-x="1323" d="M123 332q0 123 69.5 216t176.5 128q-54 41 -84.5 100t-30.5 127q0 213 163.5 330t463.5 117q79 0 170 -7l-56 -309q-54 4 -149 4q-99 0 -154 -34t-55 -93q0 -88 133 -88h133l19 101h358l-18 -101h141l-49 -284h-142l-41 -232h142l-56 -307h-677q-215 0 -336 87.5 t-121 244.5zM522 403q0 -52 41.5 -74t122.5 -22h127l41 232h-131q-95 0 -148 -36t-53 -100z" />
<glyph unicode="'" horiz-adv-x="485" d="M252 840l47 510h363l-134 -510h-276z" />
<glyph unicode="(" horiz-adv-x="782" d="M133 385q0 114 23.5 226.5t76.5 227t130.5 214t192 186t255.5 143.5l166 -256q-107 -72 -182 -143t-134.5 -159.5t-88.5 -197.5t-29 -241q0 -280 213 -512l-256 -256q-173 137 -270 329.5t-97 438.5z" />
<glyph unicode=")" horiz-adv-x="782" d="M-18 -127q107 72 182 143t134.5 159.5t88.5 197.5t29 241q0 280 -213 512l256 256q173 -136 269.5 -329t96.5 -439q0 -114 -23.5 -226.5t-76.5 -227t-130.5 -214t-192 -186t-255.5 -143.5z" />
<glyph unicode="*" horiz-adv-x="827" d="M217 965l199 45l-178 51l176 237l112 -135l-18 187h287l-84 -185l155 140l103 -256l-191 -43l166 -48l-178 -237l-109 131l19 -182h-287l78 172l-150 -133z" />
<glyph unicode="+" horiz-adv-x="1261" d="M186 477l58 324h364l66 366h323l-65 -366h368l-57 -324h-366l-66 -366h-324l66 366h-367z" />
<glyph unicode="," horiz-adv-x="532" d="M23 -166l149 545h373l-242 -545h-280z" />
<glyph unicode="-" horiz-adv-x="880" d="M164 420l57 319h701l-58 -319h-700z" />
<glyph unicode="." horiz-adv-x="575" d="M86 0l68 379h403l-68 -379h-403z" />
<glyph unicode="/" horiz-adv-x="845" d="M33 0l669 1329h345l-672 -1329h-342z" />
<glyph unicode="0" horiz-adv-x="1306" d="M164 438l76 434q40 231 201 354.5t429 123.5q170 0 293 -58.5t179.5 -168t31.5 -251.5l-76 -434q-38 -217 -194.5 -336.5t-429.5 -119.5q-258 0 -401 130.5t-109 325.5zM602 479q-10 -57 23.5 -94t95.5 -37q63 0 104 35.5t52 95.5l61 352q13 75 -20.5 113.5t-94.5 38.5 q-133 0 -159 -152z" />
<glyph unicode="1" horiz-adv-x="815" d="M217 965l64 364h649l-234 -1329h-430l170 965h-219z" />
<glyph unicode="2" horiz-adv-x="1167" d="M74 0l57 330l539 370q81 55 126.5 107t45.5 113q0 41 -23.5 63.5t-64.5 22.5q-52 0 -85 -32.5t-44 -86.5h-394q39 221 185 342t383 121q211 0 327.5 -97.5t116.5 -279.5q0 -82 -27.5 -155.5t-79 -134.5t-101 -104.5t-117.5 -91.5l-205 -145h428l-60 -342h-1007z" />
<glyph unicode="3" horiz-adv-x="1159" d="M74 276l338 170q25 -76 68.5 -116.5t129.5 -40.5q82 0 131.5 41t49.5 116q0 64 -44 100t-118 36h-123l-37 161l274 269h-454l57 317h901l-47 -266l-289 -277q126 -33 194.5 -119.5t68.5 -207.5q0 -226 -159.5 -351.5t-432.5 -125.5q-202 0 -334.5 76.5t-173.5 217.5z" />
<glyph unicode="4" horiz-adv-x="1267" d="M90 254l45 252l459 823h412l-439 -747h226l45 254h383l-45 -254h151l-57 -328h-152l-45 -254h-383l45 254h-645z" />
<glyph unicode="5" horiz-adv-x="1193" d="M100 285l349 176q24 -77 68 -118.5t124 -41.5q82 0 129 42t47 112q0 59 -40 93t-113 34h-443l174 747h865l-58 -330h-514l-37 -141h146q192 0 306 -98t114 -277q0 -220 -161.5 -360.5t-432.5 -140.5q-204 0 -335 72t-188 231z" />
<glyph unicode="6" horiz-adv-x="1193" d="M135 406q0 57 17 119t37.5 106.5t58 102t57.5 84t57 73.5l351 438h424l-367 -442q30 6 59 6q189 0 303.5 -114t114.5 -290q0 -156 -81.5 -273t-216.5 -175.5t-304 -58.5q-238 0 -374 108.5t-136 315.5zM535 432q0 -57 41.5 -94t97.5 -37q77 0 125.5 46.5t48.5 127.5 q0 61 -39.5 99t-101.5 38q-77 0 -124.5 -51t-47.5 -129z" />
<glyph unicode="7" horiz-adv-x="1128" d="M135 0l684 985h-600l60 344h1040l-49 -287l-711 -1042h-424z" />
<glyph unicode="8" horiz-adv-x="1259" d="M133 362q0 130 72.5 228t216.5 151q-54 34 -81.5 91.5t-27.5 125.5q0 169 146 280.5t383 111.5q212 0 331 -90t119 -238q0 -91 -54 -169.5t-144 -111.5q174 -84 174 -282q0 -143 -79.5 -252t-219.5 -167t-318 -58q-228 0 -373 105.5t-145 274.5zM539 416q0 -57 41 -93 t106 -36q77 0 130.5 47.5t53.5 116.5q0 57 -40.5 95t-106.5 38q-77 0 -130.5 -49t-53.5 -119zM684 948q0 -40 27 -68t77 -28q54 0 88.5 35t34.5 86q0 40 -29 66t-73 26q-54 0 -89.5 -34.5t-35.5 -82.5z" />
<glyph unicode="9" horiz-adv-x="1193" d="M180 840q0 157 81.5 273.5t216.5 175.5t304 59q238 0 374 -108.5t136 -315.5q0 -57 -17 -119t-37.5 -107t-57.5 -102.5t-57.5 -84.5t-57.5 -73l-350 -438h-424l366 442q-30 -6 -59 -6q-189 0 -303.5 114t-114.5 290zM580 854q0 -61 39.5 -99t101.5 -38q77 0 124.5 51 t47.5 129q0 57 -41.5 94t-97.5 37q-77 0 -125.5 -46.5t-48.5 -127.5z" />
<glyph unicode=":" horiz-adv-x="587" d="M92 0l68 379h403l-67 -379h-404zM193 573l67 379h404l-68 -379h-403z" />
<glyph unicode=";" horiz-adv-x="587" d="M37 -166l149 545h373l-242 -545h-280zM207 573l67 379h404l-68 -379h-403z" />
<glyph unicode="&#x3c;" horiz-adv-x="1275" d="M334 649l694 606l193 -225l-469 -399l311 -381l-248 -207z" />
<glyph unicode="=" horiz-adv-x="1261" d="M145 242l58 323h1057l-58 -323h-1057zM231 733l58 324h1057l-58 -324h-1057z" />
<glyph unicode="&#x3e;" horiz-adv-x="1275" d="M285 268l469 400l-312 381l248 206l481 -606l-694 -606z" />
<glyph unicode="?" horiz-adv-x="1077" d="M195 877q38 220 178.5 346.5t382.5 126.5q117 0 205.5 -27.5t139 -75.5t75 -106t24.5 -125q0 -68 -21 -125.5t-55 -96t-75 -70t-83 -53.5t-77 -41t-59 -38t-27 -39l-12 -76h-379l12 76q7 47 32.5 86.5t60.5 66.5t75 51t78.5 44.5t70 41.5t51 47.5t19.5 57.5 q0 34 -25.5 53t-72.5 19q-64 0 -102.5 -38t-49.5 -105h-366zM322 0l59 344h385l-59 -344h-385z" />
<glyph unicode="@" horiz-adv-x="2045" d="M115 289q0 220 79.5 408.5t219.5 321t338 207t428 74.5q169 0 314.5 -38t252 -105t182 -158.5t113 -200t37.5 -227.5q0 -152 -43.5 -276.5t-119 -206.5t-178 -126t-220.5 -44q-50 0 -99.5 10.5t-97.5 32t-84 61t-51 91.5q-103 -136 -262 -136q-105 0 -187 53t-124 136.5 t-42 179.5q0 113 40 206t104.5 150.5t141.5 89t155 31.5q202 0 268 -139l20 113h345l-80 -461q-10 -55 6 -79t45 -24q58 0 99.5 96t41.5 224q0 227 -159 343t-439 116q-208 0 -373 -87.5t-256.5 -244.5t-91.5 -356q0 -114 33.5 -207.5t99 -162.5t170 -106.5t240.5 -37.5 q163 0 297 57l88 -279q-170 -73 -418 -73t-437.5 96.5t-292.5 272.5t-103 405zM942 385q0 -57 35.5 -90t89.5 -33q63 0 106.5 45t43.5 111q0 56 -35.5 88.5t-89.5 32.5q-62 0 -106 -45t-44 -109z" />
<glyph unicode="A" horiz-adv-x="1458" d="M0 0l717 1329h493l248 -1329h-420l-30 221h-461l-107 -221h-440zM709 557h256l-54 422z" />
<glyph unicode="B" horiz-adv-x="1271" d="M115 0l233 1329h598q185 0 291 -90t106 -233q0 -117 -59 -201.5t-166 -116.5q75 -30 123.5 -101.5t48.5 -156.5q0 -197 -139.5 -313.5t-368.5 -116.5h-667zM528 303h228q73 0 115 33.5t42 99.5q0 49 -31 76t-85 27h-228zM616 807h197q69 0 109.5 31t40.5 92 q0 40 -28.5 68t-82.5 28h-197z" />
<glyph unicode="C" horiz-adv-x="1415" d="M174 594q0 154 61.5 293.5t166.5 241t252.5 161.5t312.5 60q199 0 345 -85.5t222 -240.5l-401 -184q-64 121 -213 121q-131 0 -219.5 -97.5t-88.5 -232.5q0 -116 68 -188t180 -72q146 0 236 116l358 -200q-116 -145 -281.5 -225t-357.5 -80q-145 0 -266 46t-203 127.5 t-127 194.5t-45 244z" />
<glyph unicode="D" horiz-adv-x="1486" d="M115 0l233 1329h545q190 0 339.5 -77.5t231.5 -212.5t82 -304q0 -121 -40 -233.5t-114.5 -202.5t-173.5 -158t-222.5 -104.5t-256.5 -36.5h-624zM610 369h174q134 0 228 94t94 231q0 118 -71.5 192.5t-188.5 74.5h-131z" />
<glyph unicode="E" horiz-adv-x="1157" d="M115 0l233 1329h957l-56 -317h-547l-32 -191h501l-55 -307h-502l-34 -197h546l-55 -317h-956z" />
<glyph unicode="F" horiz-adv-x="1130" d="M115 0l233 1329h957l-58 -328h-526l-41 -235h481l-57 -328h-481l-78 -438h-430z" />
<glyph unicode="G" horiz-adv-x="1513" d="M174 594q0 154 60.5 293t166 241t256 162t322.5 60q177 0 296.5 -32.5t233.5 -133.5l-327 -293q-48 41 -101.5 55.5t-132.5 14.5q-152 0 -245 -96.5t-93 -233.5q0 -117 71 -188.5t191 -71.5q189 0 265 118h-228l49 285h631q0 -178 -56 -326.5t-156 -250.5t-240.5 -158.5 t-305.5 -56.5q-148 0 -272 46t-208 127.5t-130.5 194.5t-46.5 244z" />
<glyph unicode="H" horiz-adv-x="1447" d="M115 0l233 1329h430l-82 -469h359l82 469h430l-234 -1329h-430l86 487h-358l-86 -487h-430z" />
<glyph unicode="I" horiz-adv-x="659" d="M115 0l233 1329h430l-233 -1329h-430z" />
<glyph unicode="J" horiz-adv-x="1157" d="M23 184l290 303q72 -116 207 -116q89 0 140 52.5t71 166.5l131 739h430l-145 -825q-46 -266 -206 -394t-447 -128q-147 0 -272 51t-199 151z" />
<glyph unicode="K" horiz-adv-x="1370" d="M115 0l233 1329h430l-80 -461l363 461h514l-533 -596l351 -733h-467l-197 414l-135 -131l-49 -283h-430z" />
<glyph unicode="L" horiz-adv-x="1105" d="M115 0l233 1329h430l-166 -950h527l-68 -379h-956z" />
<glyph unicode="M" horiz-adv-x="1781" d="M115 0l233 1329h502l121 -831l411 831h519l-234 -1329h-385l123 696l-330 -696h-370l-82 700l-123 -700h-385z" />
<glyph unicode="N" horiz-adv-x="1523" d="M115 0l233 1329h428l350 -706l123 706h393l-233 -1329h-375l-387 784l-139 -784h-393z" />
<glyph unicode="O" horiz-adv-x="1572" d="M172 594q0 154 62.5 293.5t170 241t258 161.5t318.5 60q148 0 271 -46.5t206.5 -128.5t129.5 -195.5t46 -244.5q0 -207 -107 -380t-292.5 -273t-407.5 -100q-148 0 -271.5 46t-207.5 127.5t-130 194.5t-46 244zM612 631q0 -116 71.5 -188t188.5 -72q134 0 228 93.5 t94 229.5q0 118 -71.5 192.5t-188.5 74.5q-137 0 -229.5 -97.5t-92.5 -232.5z" />
<glyph unicode="P" horiz-adv-x="1294" d="M115 0l233 1329h541q247 0 386.5 -114.5t139.5 -301.5q0 -182 -86.5 -314.5t-234 -198.5t-336.5 -66h-154l-59 -334h-430zM662 666h122q96 0 154.5 53.5t58.5 140.5q0 137 -153 137h-123z" />
<glyph unicode="Q" horiz-adv-x="1556" d="M172 594q0 154 62.5 293.5t170 241t258 161.5t318.5 60q148 0 271 -46.5t206.5 -128.5t129.5 -195.5t46 -244.5q0 -154 -61 -291.5t-170 -240.5l108 -140l-364 -280l-166 211q-73 -12 -154 -12q-148 0 -271.5 46t-207.5 127.5t-130 194.5t-46 244zM612 631 q0 -116 71.5 -188t188.5 -72q134 0 228 93.5t94 229.5q0 118 -71.5 192.5t-188.5 74.5q-137 0 -229.5 -97.5t-92.5 -232.5z" />
<glyph unicode="R" horiz-adv-x="1323" d="M115 0l233 1329h559q233 0 368.5 -110.5t135.5 -307.5q0 -141 -68.5 -253.5t-205.5 -176.5l141 -481h-447l-94 410h-119l-71 -410h-432zM672 709h112q99 0 155 45.5t56 122.5q0 65 -42 98t-115 33h-113z" />
<glyph unicode="S" horiz-adv-x="1257" d="M61 233l318 263q51 -84 138.5 -131.5t189.5 -47.5q71 0 110 21.5t39 56.5q0 27 -20.5 47t-54.5 34.5t-78.5 28t-93.5 30t-98 37t-93.5 52t-78.5 72.5t-54.5 102t-20.5 136q0 183 151 299.5t408 116.5q195 0 331 -52.5t230 -158.5l-294 -252q-116 135 -275 135 q-64 0 -99.5 -19.5t-35.5 -54.5q0 -28 32.5 -50t85 -41t115.5 -40t126 -53.5t115.5 -75t85 -111t32.5 -155.5q0 -106 -46.5 -191t-128.5 -138.5t-188.5 -82t-230.5 -28.5q-213 0 -363.5 58.5t-253.5 192.5z" />
<glyph unicode="T" horiz-adv-x="1318" d="M203 950l67 379h1250l-68 -379h-410l-168 -950h-430l168 950h-409z" />
<glyph unicode="U" horiz-adv-x="1507" d="M209 629l123 700h430l-119 -674q-10 -54 -10 -97q0 -74 29 -118q45 -68 161 -68.5t180.5 65.5t90.5 218l118 674h430l-122 -700q-32 -178 -95.5 -304t-159.5 -201t-215 -108.5t-272 -33.5q-304 0 -464 174q-119 130 -119 330q0 67 14 143z" />
<glyph unicode="V" horiz-adv-x="1464" d="M236 1329h460l101 -889l415 889h482l-695 -1329h-534z" />
<glyph unicode="W" horiz-adv-x="2189" d="M238 1329h462l19 -889l375 889h450l60 -889l333 889h480l-633 -1329h-494l-65 735l-326 -735h-493z" />
<glyph unicode="X" horiz-adv-x="1355" d="M-10 0l565 690l-311 639h467l135 -330l241 330h492l-541 -661l328 -668h-457l-151 356l-266 -356h-502z" />
<glyph unicode="Y" horiz-adv-x="1452" d="M227 1329h457l186 -467l332 467h484l-656 -829l-88 -500h-430l88 502z" />
<glyph unicode="Z" horiz-adv-x="1245" d="M80 0l57 319l647 654h-530l61 356h1084l-56 -319l-645 -654h531l-64 -356h-1085z" />
<glyph unicode="[" horiz-adv-x="763" d="M49 -352l297 1681h600l-57 -323h-227l-183 -1035h228l-58 -323h-600z" />
<glyph unicode="\" horiz-adv-x="823" d="M266 1329h322l203 -1329h-320z" />
<glyph unicode="]" horiz-adv-x="763" d="M-8 -352l57 323h227l183 1035h-228l58 323h600l-297 -1681h-600z" />
<glyph unicode="^" horiz-adv-x="1261" d="M184 547l488 782h385l213 -782h-359l-94 469l-254 -469h-379z" />
<glyph unicode="_" horiz-adv-x="1249" d="M-6 -373l57 320h1131l-58 -320h-1130z" />
<glyph unicode="`" horiz-adv-x="1228" d="M340 1225l86 311l561 -166l-94 -283z" />
<glyph unicode="a" d="M127 422q0 134 44.5 245t117 180t158.5 106.5t174 37.5q226 0 299 -157l24 139h377l-172 -973h-375l21 115q-113 -133 -275 -133q-118 0 -209 63t-137.5 162.5t-46.5 214.5zM537 467q0 -67 40 -106t101 -39q69 0 117.5 53t48.5 131q0 67 -39.5 106t-99.5 39 q-70 0 -119 -53.5t-49 -130.5z" />
<glyph unicode="b" d="M96 0l244 1382h375l-92 -526q106 135 276 135q118 0 209 -63t137.5 -162.5t46.5 -214.5q0 -134 -44.5 -245t-116.5 -180t-158 -106.5t-174 -37.5q-228 0 -301 161l-25 -143h-377zM575 467q0 -67 40 -106t100 -39q70 0 119 53.5t49 130.5q0 67 -40.5 106t-101.5 39 q-69 0 -117.5 -53t-48.5 -131z" />
<glyph unicode="c" horiz-adv-x="1032" d="M127 422q0 136 47.5 245.5t129 179.5t186.5 107t225 37q160 0 264 -51t170 -149l-297 -236q-32 96 -139 96q-69 0 -117.5 -53t-48.5 -131q0 -67 39.5 -106t99.5 -39q96 0 154 94l241 -256q-109 -106 -207.5 -142t-228.5 -36q-128 0 -229.5 36.5t-163 98.5t-93.5 140 t-32 165z" />
<glyph unicode="d" d="M127 422q0 134 44.5 245t117 180t158.5 106.5t174 37.5q223 0 301 -160l96 551h377l-246 -1382h-375l21 115q-107 -133 -275 -133q-118 0 -209 63t-137.5 162.5t-46.5 214.5zM537 467q0 -67 40 -106t101 -39q69 0 117.5 53t48.5 131q0 67 -39.5 106t-99.5 39 q-70 0 -119 -53.5t-49 -130.5z" />
<glyph unicode="e" horiz-adv-x="1128" d="M127 440q0 127 44.5 232t122.5 174.5t182 107t224 37.5q94 0 173.5 -22.5t134.5 -61t93.5 -89.5t56.5 -107t18 -115q0 -85 -29 -203h-637q31 -119 170 -119q108 0 197 70l192 -211q-102 -88 -198 -119.5t-226 -31.5q-122 0 -221.5 37t-163.5 100t-98.5 145.5t-34.5 175.5 zM512 586h311q-5 67 -40 107t-99 40q-62 0 -107 -36.5t-65 -110.5z" />
<glyph unicode="f" horiz-adv-x="843" d="M176 645l57 328h117l2 12q35 216 158.5 317t351.5 101q124 0 197 -12l-53 -308q-27 2 -64 2q-69 0 -113 -26.5t-51 -73.5l-2 -12h209l-57 -328h-211l-115 -645h-424l115 645h-117z" />
<glyph unicode="g" horiz-adv-x="1245" d="M33 -358l188 297q47 -34 122 -58t157 -24q49 0 83.5 4t71 18.5t61.5 39t45.5 67.5t31.5 104l4 25q-107 -133 -275 -133q-118 0 -209 63t-137.5 162.5t-46.5 214.5q0 134 44.5 245t117 180t158.5 106.5t174 37.5q223 0 301 -160l24 142h375l-162 -916 q-51 -273 -224.5 -400.5t-457.5 -127.5q-278 0 -446 113zM539 467q0 -67 40 -106t101 -39q69 0 117.5 53t48.5 131q0 67 -39.5 106t-99.5 39q-70 0 -119 -53.5t-49 -130.5z" />
<glyph unicode="h" horiz-adv-x="1218" d="M96 0l244 1382h377l-90 -512q114 121 286 121q324 0 324 -320q0 -66 -14 -147l-93 -524h-423l88 502q3 15 3 27q0 31 -16 49q-22 26 -65 26q-42 0 -71.5 -29t-37.5 -73l-88 -502h-424z" />
<glyph unicode="i" horiz-adv-x="616" d="M96 0l172 973h424l-172 -973h-424zM293 1106l67 379h424l-67 -379h-424z" />
<glyph unicode="j" horiz-adv-x="616" d="M-172 -461l57 328q29 -4 62 -4q123 0 149 145l170 965h424l-168 -957q-47 -273 -165.5 -380t-366.5 -107q-101 0 -162 10zM291 1106l67 379h424l-67 -379h-424z" />
<glyph unicode="k" horiz-adv-x="1191" d="M96 0l244 1382h424l-119 -675l246 266h467l-436 -447l305 -526h-414l-158 252l-110 -111l-25 -141h-424z" />
<glyph unicode="l" horiz-adv-x="616" d="M96 0l244 1382h424l-244 -1382h-424z" />
<glyph unicode="m" horiz-adv-x="1796" d="M96 0l172 973h377l-18 -101q110 119 286 119q203 0 277 -149q48 68 130.5 108.5t190.5 40.5q78 0 138 -23t96 -63.5t57.5 -95.5t21.5 -118q0 -3 1 -6q0 -60 -10 -126l-99 -559h-424l88 502q3 16 3 29q0 29 -13 47q-19 26 -57 26q-39 0 -67.5 -27t-37.5 -69l-90 -508h-424 l88 502q3 16 3 29q0 29 -13 47q-19 26 -57 26q-40 0 -69.5 -29t-37.5 -73l-88 -502h-424z" />
<glyph unicode="n" horiz-adv-x="1218" d="M96 0l172 973h377l-18 -103q114 121 286 121q324 0 324 -320q0 -66 -14 -147l-93 -524h-423l88 502q3 15 3 27q0 31 -16 49q-22 26 -65 26q-42 0 -71.5 -29t-37.5 -73l-88 -502h-424z" />
<glyph unicode="o" horiz-adv-x="1216" d="M119 434q0 174 85 302.5t222.5 191.5t306.5 63q128 0 231.5 -37t167.5 -99.5t98 -142t34 -167.5q0 -135 -50.5 -244t-136.5 -177.5t-196 -105t-234 -36.5t-226 37.5t-167 100.5t-100 144t-35 170zM539 467q0 -67 39.5 -106t99.5 -39q69 0 117.5 53t48.5 131 q0 67 -39.5 106t-99.5 39q-69 0 -117.5 -53t-48.5 -131z" />
<glyph unicode="p" horiz-adv-x="1249" d="M16 -451l252 1424h375l-20 -117q106 135 276 135q118 0 209 -63t137.5 -162.5t46.5 -214.5q0 -134 -44.5 -245t-116.5 -180t-158 -106.5t-174 -37.5q-228 0 -301 161l-105 -594h-377zM575 467q0 -67 40 -106t100 -39q70 0 119 53.5t49 130.5q0 67 -40.5 106t-101.5 39 q-69 0 -117.5 -53t-48.5 -131z" />
<glyph unicode="q" horiz-adv-x="1245" d="M127 422q0 134 44.5 245t117 180t158.5 106.5t174 37.5q222 0 299 -157l24 139h377l-252 -1424h-375l99 564q-106 -131 -273 -131q-118 0 -209 63t-137.5 162.5t-46.5 214.5zM537 467q0 -67 40 -106t101 -39q69 0 117.5 53t48.5 131q0 67 -39.5 106t-99.5 39 q-70 0 -119 -53.5t-49 -130.5z" />
<glyph unicode="r" horiz-adv-x="823" d="M96 0l172 973h377l-31 -172q90 187 347 190l-72 -409q-32 4 -62 4q-91 0 -158 -67.5t-85 -164.5l-64 -354h-424z" />
<glyph unicode="s" horiz-adv-x="1005" d="M68 201l317 147q17 -44 59.5 -70t96.5 -26q80 0 80 41q0 20 -24 35.5t-62.5 27.5t-84.5 25.5t-92.5 35t-85 50.5t-62.5 77t-24 109q0 151 121.5 244.5t323.5 93.5q166 0 272.5 -48t161.5 -150l-315 -148q-27 76 -107 76q-28 0 -45.5 -12t-17.5 -31q0 -18 24 -32.5t62 -27 t84.5 -27t93 -36.5t84.5 -51t62 -75.5t24 -104.5q0 -159 -127.5 -250.5t-349.5 -91.5q-172 0 -292 55.5t-177 163.5z" />
<glyph unicode="t" horiz-adv-x="851" d="M154 645l57 328h168l45 248h424l-45 -248h192l-57 -328h-193l-114 -645h-424l115 645h-168z" />
<glyph unicode="u" horiz-adv-x="1208" d="M158 449l92 524h424l-88 -502q-3 -15 -2 -27q0 -32 15 -50q22 -26 65 -25q42 0 71 29t37 73l88 502h424l-172 -973h-377l19 102q-113 -120 -287 -120q-191 0 -271 113q-52 74 -52 203q0 68 14 151z" />
<glyph unicode="v" horiz-adv-x="1181" d="M180 973h428l45 -563l240 563h453l-527 -973h-457z" />
<glyph unicode="w" horiz-adv-x="1708" d="M182 973h400l2 -559l194 559h477l5 -559l196 559h414l-471 -973h-449v532l-194 -532h-447z" />
<glyph unicode="x" horiz-adv-x="1146" d="M-16 0l440 496l-248 477h445l75 -203l150 203h469l-420 -479l268 -494h-454l-91 211l-161 -211h-473z" />
<glyph unicode="y" horiz-adv-x="1173" d="M121 -451l293 451h-62l-174 973h426l49 -570l236 570h454l-778 -1424h-444z" />
<glyph unicode="z" horiz-adv-x="1011" d="M74 0l51 295l389 360h-315l57 318h846l-53 -301l-385 -355h331l-55 -317h-866z" />
<glyph unicode="{" horiz-adv-x="856" d="M80 356l47 265q119 0 172.5 47t73.5 151l39 217q26 145 109.5 219t240.5 74h280l-53 -299h-125q-102 0 -121 -108l-32 -181q-31 -167 -232 -252q80 -40 119.5 -105.5t24.5 -147.5l-33 -181q-9 -51 12 -79.5t68 -28.5h129l-54 -299h-264q-135 0 -210.5 88t-51.5 211 l37 211q18 101 -19.5 145t-156.5 53z" />
<glyph unicode="|" horiz-adv-x="583" d="M72 -225l274 1554h363l-275 -1554h-362z" />
<glyph unicode="}" horiz-adv-x="856" d="M-12 -352l53 299h125q102 0 121 108l32 181q31 166 232 251q-79 40 -118.5 106t-24.5 148l32 181q9 51 -12 79.5t-68 28.5h-129l54 299h264q135 0 210.5 -88t51.5 -211l-37 -211q-18 -101 19.5 -145t156.5 -53l-47 -265q-119 0 -172.5 -47t-73.5 -151l-39 -217 q-26 -145 -109.5 -219t-240.5 -74h-280z" />
<glyph unicode="~" horiz-adv-x="1261" d="M154 496q23 167 116.5 255.5t253.5 88.5q100 0 239 -35t198 -35q70 0 83 70h310q-30 -174 -118.5 -259t-250.5 -85q-93 0 -234 34.5t-196 34.5q-87 0 -100 -69h-301z" />
<glyph unicode="&#xa1;" horiz-adv-x="559" d="M23 -356l65 372l180 480h197l12 -480l-65 -372h-389zM197 629l59 344h385l-59 -344h-385z" />
<glyph unicode="&#xa2;" horiz-adv-x="1028" d="M178 612q0 199 105 328.5t276 171.5l37 217h330l-39 -221q141 -41 221 -160l-270 -215q-28 88 -127 88q-63 0 -106.5 -48t-43.5 -120q0 -61 35.5 -96t91.5 -35q85 0 139 86l220 -233q-144 -142 -318 -158l-37 -217h-330l46 260q-113 51 -171.5 145t-58.5 207z" />
<glyph unicode="&#xa3;" horiz-adv-x="1153" d="M82 0l55 317q146 83 199 136h-156l51 292h99q-58 90 -58 177q0 183 146.5 305.5t376.5 122.5q111 0 197.5 -23.5t140.5 -65t87 -99t38 -125t-7 -142.5h-397q7 36 -14.5 67t-67.5 31q-48 0 -80.5 -29t-32.5 -81q0 -9 1.5 -19t3 -17.5t5.5 -18t6.5 -16.5t8.5 -17t8.5 -16 t9.5 -17.5t9 -16.5h348l-51 -292h-324q-56 -69 -143 -119h600l-60 -334h-999z" />
<glyph unicode="&#xa4;" horiz-adv-x="1294" d="M129 319l190 162q-32 68 -32 162q0 154 67 266l-114 140l260 217l125 -148q85 27 184 27q121 0 213 -39l182 154l199 -232l-168 -143q25 -70 25 -144q0 -170 -89 -299l121 -143l-260 -217l-145 172q-73 -18 -152 -18q-111 0 -192 34l-215 -182zM643 672q0 -60 34 -95.5 t85 -35.5q59 0 100 48t41 118q0 61 -34 96t-85 35q-59 0 -100 -48t-41 -118z" />
<glyph unicode="&#xa5;" horiz-adv-x="1529" d="M211 281l37 211h391l2 10l-59 131h-310l37 211h178l-219 485h457l186 -467l332 467h483l-383 -485h177l-37 -211h-307l-105 -133l-2 -8h389l-37 -211h-389l-49 -281h-430l49 281h-391z" />
<glyph unicode="&#xa6;" horiz-adv-x="583" d="M72 -225l102 583h363l-103 -583h-362zM244 745l102 584h363l-103 -584h-362z" />
<glyph unicode="&#xa7;" horiz-adv-x="1091" d="M43 -68l252 209q95 -127 235 -127q60 0 94.5 16t34.5 46q0 27 -27.5 49t-72 40t-98 37.5t-106.5 47t-97.5 62t-72 88.5t-27.5 122q0 94 55 168t156 119q-86 73 -86 192q0 159 138 254t365 95q140 0 258 -48.5t183 -132.5l-244 -208q-38 53 -96.5 83.5t-120.5 30.5 q-135 0 -135 -71q0 -26 27.5 -46t72 -35.5t98 -33t107 -43.5t98 -60.5t72 -91.5t27.5 -129q0 -90 -56.5 -163.5t-158.5 -118.5q88 -75 88 -187q0 -165 -136.5 -260.5t-355.5 -95.5q-337 0 -471 192zM469 551q0 -21 11.5 -40t27.5 -32.5t46.5 -28.5t53.5 -23.5t64 -23.5 q69 11 109 46.5t40 89.5q0 28 -14.5 50t-46.5 40.5t-60.5 30t-78.5 28.5q-71 -11 -111.5 -46.5t-40.5 -90.5z" />
<glyph unicode="&#xa8;" horiz-adv-x="1228" d="M373 1124l59 340h367l-60 -340h-366zM889 1124l59 340h367l-60 -340h-366z" />
<glyph unicode="&#xa9;" horiz-adv-x="1572" d="M172 594q0 155 62 295t169 241t257.5 160.5t320.5 59.5q148 0 271 -46.5t206.5 -128.5t129.5 -195.5t46 -244.5q0 -155 -62.5 -294.5t-169 -240t-255.5 -159.5t-316 -59q-148 0 -272.5 46.5t-209 127.5t-131 194t-46.5 244zM414 610q0 -185 123 -301t319 -116 q148 0 271.5 68.5t194.5 187.5t71 262q0 189 -120.5 308.5t-318.5 119.5q-155 0 -279.5 -72.5t-192.5 -193t-68 -263.5zM512 618q0 100 35 180.5t94.5 131.5t137 78.5t165.5 27.5q223 0 320 -147l-211 -172q-34 69 -111 69q-51 0 -86 -39t-35 -96q0 -49 29.5 -77.5 t73.5 -28.5q36 0 62 13t58 46l170 -180q-82 -75 -156 -103t-165 -28q-184 0 -282.5 94.5t-98.5 230.5z" />
<glyph unicode="&#xaa;" horiz-adv-x="978" d="M217 940q0 120 56 214t140 141.5t177 47.5q186 0 244 -120l18 106h266l-125 -704h-266l14 84q-87 -97 -219 -97t-218.5 98t-86.5 230zM514 965q0 -53 27.5 -82t70.5 -29q50 0 83.5 38.5t33.5 98.5q0 53 -27.5 82t-70.5 29q-50 0 -83.5 -38.5t-33.5 -98.5z" />
<glyph unicode="&#xab;" horiz-adv-x="1251" d="M125 475l367 383h348l-379 -395l223 -371h-332zM637 475l367 383h348l-379 -395l223 -371h-332z" />
<glyph unicode="&#xac;" horiz-adv-x="1261" d="M180 477l58 324h1056l-104 -596h-324l47 272h-733z" />
<glyph unicode="&#xad;" horiz-adv-x="880" d="M164 420l57 319h701l-58 -319h-700z" />
<glyph unicode="&#xae;" horiz-adv-x="1572" d="M172 594q0 155 62 295t169 241t257.5 160.5t320.5 59.5q148 0 271 -46.5t206.5 -128.5t129.5 -195.5t46 -244.5q0 -155 -62.5 -294.5t-169 -240t-255.5 -159.5t-316 -59q-148 0 -272.5 46.5t-209 127.5t-131 194t-46.5 244zM414 610q0 -185 123 -301t319 -116 q148 0 271.5 68.5t194.5 187.5t71 262q0 189 -120.5 308.5t-318.5 119.5q-155 0 -279.5 -72.5t-192.5 -193t-68 -263.5zM549 334l123 690h297q126 0 203 -60t77 -163q0 -80 -44.5 -141.5t-121.5 -94.5l99 -231h-262l-52 201h-34l-37 -201h-248zM864 713h66q32 0 51.5 17 t19.5 48q0 51 -53 51h-63z" />
<glyph unicode="&#xaf;" horiz-adv-x="1228" d="M326 1153l49 277h737l-49 -277h-737z" />
<glyph unicode="&#xb0;" horiz-adv-x="811" d="M219 965q0 157 114.5 264.5t280.5 107.5q137 0 233.5 -90.5t96.5 -220.5q0 -155 -114.5 -263t-280.5 -108q-137 0 -233.5 90t-96.5 220zM457 985q0 -46 32.5 -77t81.5 -31q56 0 96 37.5t40 91.5q0 46 -33 78t-80 32q-57 0 -97 -38.5t-40 -92.5z" />
<glyph unicode="&#xb1;" horiz-adv-x="1261" d="M102 0l58 324h1057l-58 -324h-1057zM223 688l58 324h366l47 264h324l-47 -264h366l-57 -324h-367l-43 -244h-323l43 244h-367z" />
<glyph unicode="&#xb2;" horiz-adv-x="819" d="M174 539l35 196l307 189q77 47 108 77.5t31 67.5q0 55 -59 55q-68 0 -86 -82h-254q31 152 126.5 230t250.5 78q144 0 219.5 -58t75.5 -166q0 -95 -66 -174t-188 -135l-88 -43l295 14l-45 -249h-662z" />
<glyph unicode="&#xb3;" horiz-adv-x="761" d="M158 733l250 98q13 -83 94 -83q41 0 62.5 19.5t21.5 51.5q0 28 -19.5 45t-52.5 17h-31l-51 114l148 113h-287l39 221h579l-32 -190l-181 -168q65 -16 103.5 -63.5t38.5 -121.5q0 -118 -97 -193t-249 -75q-144 0 -228 56t-108 159z" />
<glyph unicode="&#xb4;" horiz-adv-x="1228" d="M336 1372l594 160l67 -307l-602 -138z" />
<glyph unicode="&#xb5;" horiz-adv-x="1206" d="M45 -287l221 1260h424l-88 -504q-8 -43 12.5 -72.5t61.5 -29.5q83 0 100 102l88 504h424l-108 -619q-33 -187 -138.5 -280.5t-267.5 -93.5q-110 0 -182 37t-100 98l-72 -402h-375z" />
<glyph unicode="&#xb6;" horiz-adv-x="1392" d="M193 838q0 215 135 353t360 138h858l-53 -307h-94l-219 -1247h-295l219 1247h-139l-220 -1247h-294l122 700h-34q-166 0 -256 100t-90 263z" />
<glyph unicode="&#xb7;" horiz-adv-x="587" d="M156 360l67 379h404l-68 -379h-403z" />
<glyph unicode="&#xb8;" horiz-adv-x="1228" d="M45 -440l141 141q15 -21 46.5 -35t60.5 -14q76 0 76 49q0 43 -66 43h-170l150 281h180l-64 -119h17q73 0 122.5 -48.5t49.5 -129.5q0 -116 -84.5 -183t-222.5 -67q-158 0 -236 82z" />
<glyph unicode="&#xb9;" horiz-adv-x="641" d="M223 1032l53 297h502l-139 -790h-320l87 493h-183z" />
<glyph unicode="&#xba;" horiz-adv-x="884" d="M209 940q0 126 60.5 219t158 138.5t217.5 45.5q90 0 162.5 -26.5t117.5 -72t69 -103t24 -121.5q0 -129 -62 -223.5t-159.5 -139.5t-214.5 -45q-172 0 -272.5 96.5t-100.5 231.5zM508 965q0 -52 27 -80.5t69 -28.5q48 0 81.5 38.5t33.5 96.5q0 52 -27 80.5t-69 28.5 q-48 0 -81.5 -38.5t-33.5 -96.5z" />
<glyph unicode="&#xbb;" horiz-adv-x="1251" d="M68 92l378 395l-223 371h332l227 -383l-366 -383h-348zM580 92l378 395l-223 371h332l227 -383l-366 -383h-348z" />
<glyph unicode="&#xbc;" horiz-adv-x="1814" d="M225 1032l54 297h501l-139 -790h-319l86 493h-183zM420 0l776 1329h311l-776 -1329h-311zM1165 121l45 256l170 414h283l-186 -414h120l29 166h270l-26 -150h63l-47 -272h-63l-21 -121h-270l20 121h-387z" />
<glyph unicode="&#xbd;" horiz-adv-x="1796" d="M225 1032l54 297h501l-139 -790h-319l86 493h-183zM420 0l776 1329h311l-776 -1329h-311zM1171 0l35 197l307 188q78 47 109 77.5t31 67.5q0 56 -60 56q-68 0 -86 -82h-254q31 152 126.5 229.5t250.5 77.5q144 0 219.5 -57.5t75.5 -165.5q0 -95 -66 -174t-188 -135 l-88 -43l295 14l-45 -250h-662z" />
<glyph unicode="&#xbe;" horiz-adv-x="1939" d="M168 733l250 98q13 -83 94 -83q41 0 62.5 19.5t21.5 51.5q0 28 -19.5 45t-52.5 17h-30l-52 114l148 113h-287l39 221h580l-33 -190l-180 -168q65 -15 103 -63t38 -122q0 -118 -97 -193t-249 -75q-144 0 -228 56t-108 159zM539 0l776 1329h311l-776 -1329h-311zM1284 121 l45 256l170 414h283l-187 -414h121l29 166h270l-26 -150h63l-47 -272h-63l-21 -121h-270l20 121h-387z" />
<glyph unicode="&#xbf;" horiz-adv-x="1067" d="M41 -43q0 68 21 125.5t55 96t75 70t83 53.5t77 41t59 38t27 39l13 76h378l-12 -76q-7 -47 -32.5 -86.5t-60.5 -66.5t-75 -51t-78.5 -44.5t-70 -41.5t-51 -47.5t-19.5 -57.5q0 -34 25.5 -53t72.5 -19q64 0 102.5 38t49.5 105h367q-38 -220 -179 -346.5t-383 -126.5 q-117 0 -205.5 27.5t-139 75.5t-75 106t-24.5 125zM475 629l60 344h385l-60 -344h-385z" />
<glyph unicode="&#xc0;" horiz-adv-x="1458" d="M0 0l717 1329h493l248 -1329h-420l-30 221h-461l-107 -221h-440zM678 1563l86 311l561 -166l-94 -283zM709 557h256l-54 422z" />
<glyph unicode="&#xc1;" horiz-adv-x="1458" d="M0 0l717 1329h493l248 -1329h-420l-30 221h-461l-107 -221h-440zM670 1710l594 160l67 -307l-602 -138zM709 557h256l-54 422z" />
<glyph unicode="&#xc2;" horiz-adv-x="1458" d="M0 0l717 1329h493l248 -1329h-420l-30 221h-461l-107 -221h-440zM602 1638l342 205h219l271 -205l-189 -208l-223 165l-295 -174zM709 557h256l-54 422z" />
<glyph unicode="&#xc3;" horiz-adv-x="1458" d="M0 0l717 1329h493l248 -1329h-420l-30 221h-461l-107 -221h-440zM557 1479q51 344 309 344q61 0 110 -17.5t88 -35t75 -17.5q70 0 80 70h264q-58 -344 -303 -344q-66 0 -115.5 17.5t-86.5 34.5t-73 17q-35 0 -57 -18.5t-25 -50.5h-266zM709 557h256l-54 422z" />
<glyph unicode="&#xc4;" horiz-adv-x="1458" d="M0 0l717 1329h493l248 -1329h-420l-30 221h-461l-107 -221h-440zM539 1475l61 348h365l-62 -348h-364zM709 557h256l-54 422zM1075 1475l62 348h364l-61 -348h-365z" />
<glyph unicode="&#xc5;" horiz-adv-x="1458" d="M0 0l717 1329h493l248 -1329h-420l-30 221h-461l-107 -221h-440zM709 557h256l-54 422zM713 1659q0 126 95.5 220.5t244.5 94.5q128 0 209 -70.5t81 -183.5q0 -125 -97 -220t-247 -95q-126 0 -206 70t-80 184zM946 1677q0 -30 19.5 -48.5t52.5 -18.5q39 0 65.5 26.5 t26.5 65.5q0 30 -19 48.5t-53 18.5q-40 0 -66 -27.5t-26 -64.5z" />
<glyph unicode="&#xc6;" horiz-adv-x="1984" d="M-39 0l977 1329h1194l-55 -317h-547l-33 -191h502l-55 -307h-502l-35 -197h547l-56 -317h-956l39 225h-420l-160 -225h-440zM801 561h239l78 447z" />
<glyph unicode="&#xc7;" horiz-adv-x="1376" d="M174 594q0 154 61.5 293.5t166.5 241t252.5 161.5t312.5 60q199 0 345 -85.5t222 -240.5l-401 -184q-64 121 -213 121q-131 0 -219.5 -97.5t-88.5 -232.5q0 -116 68 -188t180 -72q146 0 236 116l358 -200q-111 -141 -272 -221t-348 -84l-41 -76h16q73 0 122.5 -48.5 t49.5 -129.5q0 -116 -84.5 -183t-222.5 -67q-158 0 -236 82l142 141q15 -21 46 -35t60 -14q76 0 76 49q0 43 -66 43h-170l136 252q-227 44 -357.5 206.5t-130.5 391.5z" />
<glyph unicode="&#xc8;" horiz-adv-x="1157" d="M115 0l233 1329h957l-56 -317h-547l-32 -191h501l-55 -307h-502l-34 -197h546l-55 -317h-956zM569 1563l86 311l562 -166l-95 -283z" />
<glyph unicode="&#xc9;" horiz-adv-x="1157" d="M115 0l233 1329h957l-56 -317h-547l-32 -191h501l-55 -307h-502l-34 -197h546l-55 -317h-956zM561 1710l594 160l68 -307l-602 -138z" />
<glyph unicode="&#xca;" horiz-adv-x="1157" d="M115 0l233 1329h957l-56 -317h-547l-32 -191h501l-55 -307h-502l-34 -197h546l-55 -317h-956zM494 1638l342 205h219l270 -205l-188 -208l-224 165l-295 -174z" />
<glyph unicode="&#xcb;" horiz-adv-x="1157" d="M115 0l233 1329h957l-56 -317h-547l-32 -191h501l-55 -307h-502l-34 -197h546l-55 -317h-956zM430 1475l62 348h364l-61 -348h-365zM967 1475l61 348h365l-62 -348h-364z" />
<glyph unicode="&#xcc;" horiz-adv-x="659" d="M115 0l233 1329h430l-233 -1329h-430zM279 1563l86 311l561 -166l-95 -283z" />
<glyph unicode="&#xcd;" horiz-adv-x="659" d="M115 0l233 1329h430l-233 -1329h-430zM270 1710l594 160l68 -307l-602 -138z" />
<glyph unicode="&#xce;" horiz-adv-x="659" d="M115 0l233 1329h430l-233 -1329h-430zM203 1638l342 205h219l270 -205l-188 -208l-223 165l-295 -174z" />
<glyph unicode="&#xcf;" horiz-adv-x="659" d="M115 0l233 1329h430l-233 -1329h-430zM139 1475l62 348h364l-61 -348h-365zM676 1475l61 348h365l-62 -348h-364z" />
<glyph unicode="&#xd0;" horiz-adv-x="1546" d="M150 526l49 277h129l92 526h545q190 0 339.5 -77.5t231.5 -212.5t82 -304q0 -121 -40 -233.5t-114.5 -202.5t-173.5 -158t-222.5 -104.5t-256.5 -36.5h-625l93 526h-129zM682 369h174q134 0 228 94t94 231q0 118 -71.5 192.5t-188.5 74.5h-132l-28 -158h260l-49 -277 h-258z" />
<glyph unicode="&#xd1;" horiz-adv-x="1523" d="M115 0l233 1329h428l350 -706l123 706h393l-233 -1329h-375l-387 784l-139 -784h-393zM590 1479q51 344 309 344q61 0 110 -17.5t87.5 -35t74.5 -17.5q70 0 80 70h265q-28 -168 -104.5 -256t-199.5 -88q-66 0 -115.5 17.5t-86 34.5t-72.5 17q-35 0 -57 -18.5t-25 -50.5 h-266z" />
<glyph unicode="&#xd2;" horiz-adv-x="1556" d="M172 594q0 154 62.5 293.5t170 241t258 161.5t318.5 60q148 0 271 -46.5t206.5 -128.5t129.5 -195.5t46 -244.5q0 -207 -107 -380t-292.5 -273t-407.5 -100q-148 0 -271.5 46t-207.5 127.5t-130 194.5t-46 244zM612 631q0 -116 71.5 -188t188.5 -72q134 0 228 93.5 t94 229.5q0 118 -71.5 192.5t-188.5 74.5q-137 0 -229.5 -97.5t-92.5 -232.5zM727 1563l86 311l561 -166l-94 -283z" />
<glyph unicode="&#xd3;" horiz-adv-x="1556" d="M172 594q0 154 62.5 293.5t170 241t258 161.5t318.5 60q148 0 271 -46.5t206.5 -128.5t129.5 -195.5t46 -244.5q0 -207 -107 -380t-292.5 -273t-407.5 -100q-148 0 -271.5 46t-207.5 127.5t-130 194.5t-46 244zM612 631q0 -116 71.5 -188t188.5 -72q134 0 228 93.5 t94 229.5q0 118 -71.5 192.5t-188.5 74.5q-137 0 -229.5 -97.5t-92.5 -232.5zM719 1710l594 160l67 -307l-602 -138z" />
<glyph unicode="&#xd4;" horiz-adv-x="1556" d="M172 594q0 154 62.5 293.5t170 241t258 161.5t318.5 60q148 0 271 -46.5t206.5 -128.5t129.5 -195.5t46 -244.5q0 -207 -107 -380t-292.5 -273t-407.5 -100q-148 0 -271.5 46t-207.5 127.5t-130 194.5t-46 244zM612 631q0 -116 71.5 -188t188.5 -72q134 0 228 93.5 t94 229.5q0 118 -71.5 192.5t-188.5 74.5q-137 0 -229.5 -97.5t-92.5 -232.5zM651 1638l342 205h219l271 -205l-189 -208l-223 165l-295 -174z" />
<glyph unicode="&#xd5;" horiz-adv-x="1556" d="M172 594q0 154 62.5 293.5t170 241t258 161.5t318.5 60q148 0 271 -46.5t206.5 -128.5t129.5 -195.5t46 -244.5q0 -207 -107 -380t-292.5 -273t-407.5 -100q-148 0 -271.5 46t-207.5 127.5t-130 194.5t-46 244zM606 1479q51 344 309 344q61 0 110 -17.5t88 -35t75 -17.5 q70 0 80 70h264q-58 -344 -303 -344q-66 0 -115.5 17.5t-86.5 34.5t-73 17q-35 0 -57 -18.5t-25 -50.5h-266zM612 631q0 -116 71.5 -188t188.5 -72q134 0 228 93.5t94 229.5q0 118 -71.5 192.5t-188.5 74.5q-137 0 -229.5 -97.5t-92.5 -232.5z" />
<glyph unicode="&#xd6;" horiz-adv-x="1556" d="M172 594q0 154 62.5 293.5t170 241t258 161.5t318.5 60q148 0 271 -46.5t206.5 -128.5t129.5 -195.5t46 -244.5q0 -207 -107 -380t-292.5 -273t-407.5 -100q-148 0 -271.5 46t-207.5 127.5t-130 194.5t-46 244zM588 1475l61 348h365l-62 -348h-364zM612 631 q0 -116 71.5 -188t188.5 -72q134 0 228 93.5t94 229.5q0 118 -71.5 192.5t-188.5 74.5q-137 0 -229.5 -97.5t-92.5 -232.5zM1124 1475l62 348h364l-61 -348h-365z" />
<glyph unicode="&#xd7;" horiz-adv-x="1261" d="M188 354l334 283l-233 283l266 219l229 -279l328 279l188 -219l-331 -283l231 -283l-264 -221l-231 281l-330 -281z" />
<glyph unicode="&#xd8;" horiz-adv-x="1570" d="M63 147l185 156q-68 130 -68 291q0 154 62.5 293.5t170 241t258 161.5t318.5 60q213 0 375 -97l205 174l205 -249l-193 -164q61 -122 61 -279q0 -155 -63 -294.5t-170.5 -240t-257 -159.5t-315.5 -59q-207 0 -365 90l-205 -174zM621 621l391 331q-34 9 -70 9 q-137 0 -229 -97.5t-92 -232.5v-10zM827 375q36 -4 54 -4q134 0 227.5 93t93.5 228z" />
<glyph unicode="&#xd9;" horiz-adv-x="1507" d="M209 629l123 700h430l-119 -674q-26 -147 19 -215.5t161 -68.5t180.5 66t90.5 218l118 674h430l-122 -700q-32 -178 -95.5 -304t-159.5 -201t-215 -108.5t-272 -33.5q-304 0 -463.5 174t-105.5 473zM702 1563l86 311l562 -166l-95 -283z" />
<glyph unicode="&#xda;" horiz-adv-x="1507" d="M209 629l123 700h430l-119 -674q-26 -147 19 -215.5t161 -68.5t180.5 66t90.5 218l118 674h430l-122 -700q-32 -178 -95.5 -304t-159.5 -201t-215 -108.5t-272 -33.5q-304 0 -463.5 174t-105.5 473zM694 1710l594 160l68 -307l-602 -138z" />
<glyph unicode="&#xdb;" horiz-adv-x="1507" d="M209 629l123 700h430l-119 -674q-26 -147 19 -215.5t161 -68.5t180.5 66t90.5 218l118 674h430l-122 -700q-32 -178 -95.5 -304t-159.5 -201t-215 -108.5t-272 -33.5q-304 0 -463.5 174t-105.5 473zM627 1638l342 205h219l270 -205l-188 -208l-223 165l-295 -174z" />
<glyph unicode="&#xdc;" horiz-adv-x="1507" d="M209 629l123 700h430l-119 -674q-26 -147 19 -215.5t161 -68.5t180.5 66t90.5 218l118 674h430l-122 -700q-32 -178 -95.5 -304t-159.5 -201t-215 -108.5t-272 -33.5q-304 0 -463.5 174t-105.5 473zM563 1475l62 348h364l-61 -348h-365zM1100 1475l61 348h365l-62 -348 h-364z" />
<glyph unicode="&#xdd;" horiz-adv-x="1452" d="M227 1329h457l186 -467l332 467h484l-656 -829l-88 -500h-430l88 502zM664 1710l593 160l68 -307l-602 -138z" />
<glyph unicode="&#xde;" horiz-adv-x="1316" d="M115 0l233 1329h430l-28 -166h110q247 0 386.5 -114t139.5 -301q0 -137 -50 -247.5t-138 -183t-208 -111t-261 -38.5h-156l-28 -168h-430zM633 500h123q96 0 154.5 53.5t58.5 140.5q0 68 -39.5 102.5t-114.5 34.5h-125z" />
<glyph unicode="&#xdf;" horiz-adv-x="1253" d="M96 0l150 850q19 105 47 186t75 152t112.5 117t159.5 72t214 26q220 0 344.5 -101t124.5 -253q0 -116 -65.5 -204.5t-157.5 -121.5q78 -36 128 -107t50 -174q0 -215 -153 -328.5t-453 -113.5h-70l53 307h76q76 0 120 34.5t44 98.5q0 49 -34.5 73t-88.5 24h-76l56 307h53 q61 0 97 34t36 85q0 47 -31.5 74.5t-87.5 27.5q-151 0 -186 -188l-154 -877h-383z" />
<glyph unicode="&#xe0;" d="M127 422q0 134 44.5 245t117 180t158.5 106.5t174 37.5q226 0 299 -157l24 139h377l-172 -973h-375l21 115q-113 -133 -275 -133q-118 0 -209 63t-137.5 162.5t-46.5 214.5zM492 1225l86 311l561 -166l-95 -283zM537 467q0 -67 40 -106t101 -39q69 0 117.5 53t48.5 131 q0 67 -39.5 106t-99.5 39q-70 0 -119 -53.5t-49 -130.5z" />
<glyph unicode="&#xe1;" d="M127 422q0 134 44.5 245t117 180t158.5 106.5t174 37.5q226 0 299 -157l24 139h377l-172 -973h-375l21 115q-113 -133 -275 -133q-118 0 -209 63t-137.5 162.5t-46.5 214.5zM487 1372l594 160l68 -307l-602 -138zM537 467q0 -67 40 -106t101 -39q69 0 117.5 53t48.5 131 q0 67 -39.5 106t-99.5 39q-70 0 -119 -53.5t-49 -130.5z" />
<glyph unicode="&#xe2;" d="M127 422q0 134 44.5 245t117 180t158.5 106.5t174 37.5q226 0 299 -157l24 139h377l-172 -973h-375l21 115q-113 -133 -275 -133q-118 0 -209 63t-137.5 162.5t-46.5 214.5zM424 1321l358 205h189l284 -205l-188 -209l-223 166l-295 -174zM537 467q0 -67 40 -106t101 -39 q69 0 117.5 53t48.5 131q0 67 -39.5 106t-99.5 39q-70 0 -119 -53.5t-49 -130.5z" />
<glyph unicode="&#xe3;" d="M127 422q0 134 44.5 245t117 180t158.5 106.5t174 37.5q226 0 299 -157l24 139h377l-172 -973h-375l21 115q-113 -133 -275 -133q-118 0 -209 63t-137.5 162.5t-46.5 214.5zM371 1116q51 344 309 344q48 0 90 -12.5t66 -27.5t55.5 -27.5t60.5 -12.5q78 0 88 80h256 q-58 -344 -303 -344q-52 0 -95 12.5t-66.5 27.5t-53.5 27.5t-59 12.5q-40 0 -64.5 -21.5t-27.5 -58.5h-256zM537 467q0 -67 40 -106t101 -39q69 0 117.5 53t48.5 131q0 67 -39.5 106t-99.5 39q-70 0 -119 -53.5t-49 -130.5z" />
<glyph unicode="&#xe4;" d="M127 422q0 134 44.5 245t117 180t158.5 106.5t174 37.5q226 0 299 -157l24 139h377l-172 -973h-375l21 115q-113 -133 -275 -133q-118 0 -209 63t-137.5 162.5t-46.5 214.5zM365 1124l59 340h367l-60 -340h-366zM537 467q0 -67 40 -106t101 -39q69 0 117.5 53t48.5 131 q0 67 -39.5 106t-99.5 39q-70 0 -119 -53.5t-49 -130.5zM881 1124l59 340h367l-60 -340h-366z" />
<glyph unicode="&#xe5;" d="M127 422q0 134 44.5 245t117 180t158.5 106.5t174 37.5q226 0 299 -157l24 139h377l-172 -973h-375l21 115q-113 -133 -275 -133q-118 0 -209 63t-137.5 162.5t-46.5 214.5zM537 467q0 -67 40 -106t101 -39q69 0 117.5 53t48.5 131q0 67 -39.5 106t-99.5 39 q-70 0 -119 -53.5t-49 -130.5zM553 1303q0 117 87.5 203.5t223.5 86.5q117 0 191.5 -64.5t74.5 -168.5q0 -115 -89 -203t-226 -88q-115 0 -188.5 64.5t-73.5 169.5zM760 1319q0 -30 19 -49t52 -19q39 0 66 26.5t27 65.5q0 30 -19 49t-53 19q-40 0 -66 -27.5t-26 -64.5z" />
<glyph unicode="&#xe6;" horiz-adv-x="1886" d="M127 422q0 134 44.5 245t117 180t158.5 106.5t174 37.5q226 0 299 -157l24 139h305l-16 -88q132 106 297 106q108 0 188.5 -34t126 -92t67 -125.5t21.5 -143.5q0 -89 -28 -203h-617q31 -119 170 -119q110 0 176 70l195 -215q-100 -88 -197.5 -117.5t-206.5 -29.5 q-227 0 -327 139l-21 -121h-303l21 115q-113 -133 -275 -133q-118 0 -209 63t-137.5 162.5t-46.5 214.5zM537 467q0 -67 40 -106t101 -39q69 0 117.5 53t48.5 131q0 67 -39.5 106t-99.5 39q-70 0 -119 -53.5t-49 -130.5zM1298 610h299q-8 57 -42.5 90t-92.5 33 q-57 0 -100 -30.5t-64 -92.5z" />
<glyph unicode="&#xe7;" horiz-adv-x="1034" d="M127 422q0 136 47.5 245.5t129 179.5t186.5 107t225 37q160 0 264 -51t170 -149l-297 -236q-32 96 -139 96q-69 0 -117.5 -53t-48.5 -131q0 -67 39.5 -106t99.5 -39q96 0 154 94l241 -256q-102 -99 -195.5 -137t-209.5 -41l-41 -76h16q73 0 122.5 -48.5t49.5 -129.5 q0 -116 -84.5 -183t-222.5 -67q-157 0 -235 82l141 141q15 -21 46 -35t60 -14q76 0 76 49q0 43 -65 43h-170l133 250q-183 35 -279 154t-96 274z" />
<glyph unicode="&#xe8;" horiz-adv-x="1130" d="M127 440q0 127 44.5 232t122.5 174.5t182 107t224 37.5q94 0 173.5 -22.5t134.5 -61t93.5 -89.5t56.5 -107t18 -115q0 -85 -29 -203h-637q31 -119 170 -119q108 0 197 70l192 -211q-102 -88 -198 -119.5t-226 -31.5q-122 0 -221.5 37t-163.5 100t-98.5 145.5t-34.5 175.5 zM446 1225l86 311l562 -166l-95 -283zM512 586h311q-5 67 -40 107t-99 40q-62 0 -107 -36.5t-65 -110.5z" />
<glyph unicode="&#xe9;" horiz-adv-x="1130" d="M127 440q0 127 44.5 232t122.5 174.5t182 107t224 37.5q94 0 173.5 -22.5t134.5 -61t93.5 -89.5t56.5 -107t18 -115q0 -85 -29 -203h-637q31 -119 170 -119q108 0 197 70l192 -211q-102 -88 -198 -119.5t-226 -31.5q-122 0 -221.5 37t-163.5 100t-98.5 145.5t-34.5 175.5 zM442 1372l594 160l68 -307l-602 -138zM512 586h311q-5 67 -40 107t-99 40q-62 0 -107 -36.5t-65 -110.5z" />
<glyph unicode="&#xea;" horiz-adv-x="1130" d="M127 440q0 127 44.5 232t122.5 174.5t182 107t224 37.5q94 0 173.5 -22.5t134.5 -61t93.5 -89.5t56.5 -107t18 -115q0 -85 -29 -203h-637q31 -119 170 -119q108 0 197 70l192 -211q-102 -88 -198 -119.5t-226 -31.5q-122 0 -221.5 37t-163.5 100t-98.5 145.5t-34.5 175.5 zM352 1321l359 205h188l285 -205l-189 -209l-223 166l-295 -174zM512 586h311q-5 67 -40 107t-99 40q-62 0 -107 -36.5t-65 -110.5z" />
<glyph unicode="&#xeb;" horiz-adv-x="1130" d="M127 440q0 127 44.5 232t122.5 174.5t182 107t224 37.5q94 0 173.5 -22.5t134.5 -61t93.5 -89.5t56.5 -107t18 -115q0 -85 -29 -203h-637q31 -119 170 -119q108 0 197 70l192 -211q-102 -88 -198 -119.5t-226 -31.5q-122 0 -221.5 37t-163.5 100t-98.5 145.5t-34.5 175.5 zM319 1124l60 340h366l-59 -340h-367zM512 586h311q-5 67 -40 107t-99 40q-62 0 -107 -36.5t-65 -110.5zM836 1124l59 340h367l-60 -340h-366z" />
<glyph unicode="&#xec;" horiz-adv-x="616" d="M96 0l172 973h424l-172 -973h-424zM195 1225l86 311l561 -166l-94 -283z" />
<glyph unicode="&#xed;" horiz-adv-x="616" d="M96 0l172 973h424l-172 -973h-424zM190 1372l594 160l68 -307l-602 -138z" />
<glyph unicode="&#xee;" horiz-adv-x="616" d="M96 0l172 973h424l-172 -973h-424zM127 1321l358 205h189l284 -205l-188 -209l-223 166l-295 -174z" />
<glyph unicode="&#xef;" horiz-adv-x="616" d="M68 1124l59 340h367l-60 -340h-366zM96 0l172 973h424l-172 -973h-424zM584 1124l59 340h367l-60 -340h-366z" />
<glyph unicode="&#xf0;" horiz-adv-x="1183" d="M123 403q0 118 44 218t113.5 163.5t153 98.5t166.5 35q112 0 186 -33t119 -107q0 63 -23.5 112.5t-62 79.5t-92.5 49t-109 26.5t-118 7.5l59 329q140 0 244 -26l86 119l295 -177l-86 -110q145 -167 145 -465q0 -349 -164 -545t-452 -196q-244 0 -374 120t-130 301z M543 430q0 -57 37.5 -91t89.5 -34q61 0 107 48t46 116q0 57 -37.5 91t-89.5 34q-61 0 -107 -48t-46 -116z" />
<glyph unicode="&#xf1;" horiz-adv-x="1218" d="M96 0l172 973h377l-18 -103q114 121 286 121q391 0 310 -467l-93 -524h-423l88 502q9 51 -13 76.5t-65 25.5q-42 0 -71.5 -29t-37.5 -73l-88 -502h-424zM385 1116q51 344 309 344q61 0 110 -20t88 -40t75 -20q78 0 88 80h256q-58 -344 -303 -344q-52 0 -95 12.5 t-66.5 27.5t-54 27.5t-59.5 12.5q-40 0 -64.5 -21.5t-27.5 -58.5h-256z" />
<glyph unicode="&#xf2;" horiz-adv-x="1216" d="M119 434q0 174 85 302.5t222.5 191.5t306.5 63q128 0 231.5 -37t167.5 -99.5t98 -142t34 -167.5q0 -135 -50.5 -244t-136.5 -177.5t-196 -105t-234 -36.5t-226 37.5t-167 100.5t-100 144t-35 170zM494 1225l86 311l561 -166l-94 -283zM539 467q0 -67 39.5 -106t99.5 -39 q69 0 117.5 53t48.5 131q0 67 -39.5 106t-99.5 39q-69 0 -117.5 -53t-48.5 -131z" />
<glyph unicode="&#xf3;" horiz-adv-x="1216" d="M119 434q0 174 85 302.5t222.5 191.5t306.5 63q128 0 231.5 -37t167.5 -99.5t98 -142t34 -167.5q0 -135 -50.5 -244t-136.5 -177.5t-196 -105t-234 -36.5t-226 37.5t-167 100.5t-100 144t-35 170zM489 1372l594 160l68 -307l-602 -138zM539 467q0 -67 39.5 -106t99.5 -39 q69 0 117.5 53t48.5 131q0 67 -39.5 106t-99.5 39q-69 0 -117.5 -53t-48.5 -131z" />
<glyph unicode="&#xf4;" horiz-adv-x="1216" d="M119 434q0 174 85 302.5t222.5 191.5t306.5 63q128 0 231.5 -37t167.5 -99.5t98 -142t34 -167.5q0 -135 -50.5 -244t-136.5 -177.5t-196 -105t-234 -36.5t-226 37.5t-167 100.5t-100 144t-35 170zM426 1321l358 205h189l284 -205l-188 -209l-223 166l-295 -174zM539 467 q0 -67 39.5 -106t99.5 -39q69 0 117.5 53t48.5 131q0 67 -39.5 106t-99.5 39q-69 0 -117.5 -53t-48.5 -131z" />
<glyph unicode="&#xf5;" horiz-adv-x="1216" d="M119 434q0 174 85 302.5t222.5 191.5t306.5 63q128 0 231.5 -37t167.5 -99.5t98 -142t34 -167.5q0 -135 -50.5 -244t-136.5 -177.5t-196 -105t-234 -36.5t-226 37.5t-167 100.5t-100 144t-35 170zM373 1116q51 344 309 344q48 0 90 -12.5t66 -27.5t55.5 -27.5t60.5 -12.5 q78 0 88 80h256q-58 -344 -303 -344q-52 0 -95 12.5t-66.5 27.5t-53.5 27.5t-59 12.5q-40 0 -64.5 -21.5t-27.5 -58.5h-256zM539 467q0 -67 39.5 -106t99.5 -39q69 0 117.5 53t48.5 131q0 67 -39.5 106t-99.5 39q-69 0 -117.5 -53t-48.5 -131z" />
<glyph unicode="&#xf6;" horiz-adv-x="1216" d="M119 434q0 174 85 302.5t222.5 191.5t306.5 63q128 0 231.5 -37t167.5 -99.5t98 -142t34 -167.5q0 -135 -50.5 -244t-136.5 -177.5t-196 -105t-234 -36.5t-226 37.5t-167 100.5t-100 144t-35 170zM367 1124l59 340h367l-60 -340h-366zM539 467q0 -67 39.5 -106t99.5 -39 q69 0 117.5 53t48.5 131q0 67 -39.5 106t-99.5 39q-69 0 -117.5 -53t-48.5 -131zM883 1124l59 340h367l-60 -340h-366z" />
<glyph unicode="&#xf7;" horiz-adv-x="1261" d="M186 492l58 323h1056l-57 -323h-1057zM463 209q0 90 64.5 153.5t160.5 63.5q85 0 137 -49.5t52 -128.5q0 -89 -65 -152t-161 -63q-85 0 -136.5 49t-51.5 127zM612 1057q0 90 65 153.5t161 63.5q85 0 136.5 -49.5t51.5 -128.5q0 -89 -64.5 -152t-160.5 -63 q-85 0 -137 49.5t-52 126.5z" />
<glyph unicode="&#xf8;" horiz-adv-x="1228" d="M43 109l137 114q-55 98 -55 211q0 174 85 302.5t222.5 191.5t306.5 63q158 0 277 -55l170 143l170 -211l-137 -116q51 -92 51 -207q0 -135 -50.5 -244t-136.5 -177.5t-196 -105t-234 -36.5q-155 0 -272 57l-166 -141zM545 467q0 -67 39.5 -106t99.5 -39q69 0 117.5 53 t48.5 131q0 67 -39.5 106t-99.5 39q-69 0 -117.5 -53t-48.5 -131z" />
<glyph unicode="&#xf9;" horiz-adv-x="1206" d="M158 449l92 524h424l-88 -502q-9 -51 13 -76.5t65 -25.5q42 0 71 29t37 73l88 502h424l-172 -973h-377l19 102q-113 -120 -287 -120q-191 0 -271 113t-38 354zM489 1225l86 311l562 -166l-95 -283z" />
<glyph unicode="&#xfa;" horiz-adv-x="1206" d="M158 449l92 524h424l-88 -502q-9 -51 13 -76.5t65 -25.5q42 0 71 29t37 73l88 502h424l-172 -973h-377l19 102q-113 -120 -287 -120q-191 0 -271 113t-38 354zM485 1372l594 160l68 -307l-602 -138z" />
<glyph unicode="&#xfb;" horiz-adv-x="1206" d="M158 449l92 524h424l-88 -502q-9 -51 13 -76.5t65 -25.5q42 0 71 29t37 73l88 502h424l-172 -973h-377l19 102q-113 -120 -287 -120q-191 0 -271 113t-38 354zM422 1321l358 205h189l284 -205l-188 -209l-223 166l-295 -174z" />
<glyph unicode="&#xfc;" horiz-adv-x="1206" d="M158 449l92 524h424l-88 -502q-9 -51 13 -76.5t65 -25.5q42 0 71 29t37 73l88 502h424l-172 -973h-377l19 102q-113 -120 -287 -120q-191 0 -271 113t-38 354zM362 1124l60 340h366l-59 -340h-367zM879 1124l59 340h367l-60 -340h-366z" />
<glyph unicode="&#xfd;" horiz-adv-x="1173" d="M121 -451l293 451h-62l-174 973h426l49 -570l236 570h454l-778 -1424h-444zM471 1372l594 160l68 -307l-603 -138z" />
<glyph unicode="&#xfe;" horiz-adv-x="1249" d="M16 -451l326 1833h375l-92 -524q107 133 274 133q118 0 209 -63t137.5 -162.5t46.5 -214.5q0 -134 -44.5 -245t-116.5 -180t-158 -106.5t-174 -37.5q-228 0 -301 161l-105 -594h-377zM575 467q0 -67 40 -106t100 -39q70 0 119 53.5t49 130.5q0 67 -40.5 106t-101.5 39 q-69 0 -117.5 -53t-48.5 -131z" />
<glyph unicode="&#xff;" horiz-adv-x="1173" d="M121 -451l293 451h-62l-174 973h426l49 -570l236 570h454l-778 -1424h-444zM348 1124l60 340h366l-59 -340h-367zM864 1124l60 340h366l-59 -340h-367z" />
<glyph unicode="&#x152;" horiz-adv-x="2156" d="M172 594q0 154 62.5 293.5t170 241t258 161.5t318.5 60q204 0 354 -86l13 65h956l-55 -317h-547l-33 -191h502l-55 -307h-502l-35 -197h547l-55 -317h-957l6 31q-142 -49 -293 -49q-148 0 -271.5 46t-207.5 127.5t-130 194.5t-46 244zM612 631q0 -116 71.5 -188 t188.5 -72q134 0 228 93.5t94 229.5q0 118 -71.5 192.5t-188.5 74.5q-137 0 -229.5 -97.5t-92.5 -232.5z" />
<glyph unicode="&#x153;" horiz-adv-x="1873" d="M119 434q0 174 85 302.5t222.5 191.5t306.5 63q220 0 359 -102q148 102 354 102q117 0 210 -34t149.5 -91t86 -126.5t29.5 -143.5q0 -85 -29 -203h-637q31 -119 170 -119q108 0 197 70l193 -211q-102 -88 -198 -119.5t-226 -31.5q-216 0 -355 110q-162 -110 -389 -110 q-124 0 -226 37.5t-167 100.5t-100 144t-35 170zM539 467q0 -67 39.5 -106t99.5 -39q69 0 117.5 53t48.5 131q0 67 -39.5 106t-99.5 39q-69 0 -117.5 -53t-48.5 -131zM1260 598q2 -4 2 -12h307q-5 67 -40 107t-99 40q-60 0 -104.5 -33.5t-65.5 -101.5z" />
<glyph unicode="&#x178;" horiz-adv-x="1452" d="M227 1329h457l186 -467l332 467h484l-656 -829l-88 -500h-430l88 502zM532 1475l62 348h364l-61 -348h-365zM1069 1475l61 348h365l-61 -348h-365z" />
<glyph unicode="&#x2c6;" horiz-adv-x="1228" d="M356 1321l359 205h188l285 -205l-189 -209l-223 166l-295 -174z" />
<glyph unicode="&#x2dc;" horiz-adv-x="1228" d="M319 1116q51 344 310 344q48 0 90 -12.5t66 -27.5t55.5 -27.5t60.5 -12.5q78 0 88 80h256q-58 -344 -303 -344q-52 0 -95 12.5t-66.5 27.5t-53.5 27.5t-59 12.5q-40 0 -65 -21.5t-28 -58.5h-256z" />
<glyph unicode="&#x2000;" horiz-adv-x="987" />
<glyph unicode="&#x2001;" horiz-adv-x="1974" />
<glyph unicode="&#x2002;" horiz-adv-x="987" />
<glyph unicode="&#x2003;" horiz-adv-x="1974" />
<glyph unicode="&#x2004;" horiz-adv-x="658" />
<glyph unicode="&#x2005;" horiz-adv-x="493" />
<glyph unicode="&#x2006;" horiz-adv-x="329" />
<glyph unicode="&#x2007;" horiz-adv-x="329" />
<glyph unicode="&#x2008;" horiz-adv-x="246" />
<glyph unicode="&#x2009;" horiz-adv-x="394" />
<glyph unicode="&#x200a;" horiz-adv-x="109" />
<glyph unicode="&#x2010;" horiz-adv-x="880" d="M164 420l57 319h701l-58 -319h-700z" />
<glyph unicode="&#x2011;" horiz-adv-x="880" d="M164 420l57 319h701l-58 -319h-700z" />
<glyph unicode="&#x2012;" horiz-adv-x="880" d="M164 420l57 319h701l-58 -319h-700z" />
<glyph unicode="&#x2013;" horiz-adv-x="1351" d="M164 420l57 319h1172l-58 -319h-1171z" />
<glyph unicode="&#x2014;" horiz-adv-x="1925" d="M164 420l57 319h1745l-57 -319h-1745z" />
<glyph unicode="&#x2018;" horiz-adv-x="509" d="M190 858l228 510h276l-141 -510h-363z" />
<glyph unicode="&#x2019;" horiz-adv-x="499" d="M213 840l141 510h363l-228 -510h-276z" />
<glyph unicode="&#x201a;" horiz-adv-x="524" d="M33 -131l141 510h363l-228 -510h-276z" />
<glyph unicode="&#x201c;" horiz-adv-x="956" d="M188 840l228 510h276l-141 -510h-363zM631 840l227 510h277l-142 -510h-362z" />
<glyph unicode="&#x201d;" horiz-adv-x="942" d="M213 840l141 510h363l-228 -510h-276zM655 840l142 510h362l-227 -510h-277z" />
<glyph unicode="&#x201e;" horiz-adv-x="966" d="M33 -131l141 510h363l-228 -510h-276zM475 -131l141 510h363l-227 -510h-277z" />
<glyph unicode="&#x2022;" horiz-adv-x="907" d="M193 309l104 598h633l-105 -598h-632z" />
<glyph unicode="&#x2026;" horiz-adv-x="1681" d="M86 0l68 379h403l-68 -379h-403zM639 0l68 379h403l-68 -379h-403zM1192 0l68 379h403l-68 -379h-403z" />
<glyph unicode="&#x202f;" horiz-adv-x="394" />
<glyph unicode="&#x2039;" horiz-adv-x="739" d="M125 475l367 383h348l-379 -395l223 -371h-332z" />
<glyph unicode="&#x203a;" horiz-adv-x="739" d="M68 92l378 395l-223 371h332l227 -383l-366 -383h-348z" />
<glyph unicode="&#x205f;" horiz-adv-x="493" />
<glyph unicode="&#x20ac;" horiz-adv-x="1314" d="M127 512l133 293h62q79 245 284.5 395t478.5 150q225 0 385 -82l-235 -357q-93 50 -195 50q-93 0 -165.5 -41t-116.5 -115h444l-133 -293h-350q21 -66 76.5 -103.5t144.5 -37.5q101 0 209 49l108 -357q-169 -81 -370 -81q-136 0 -250 42t-190 114.5t-119.5 168.5 t-48.5 205h-152z" />
<glyph unicode="&#x2122;" horiz-adv-x="1765" d="M236 1044l51 287h671l-51 -287h-176l-69 -389h-318l70 389h-178zM926 655l121 676h317l39 -358l166 358h329l-120 -676h-242l61 340h-4l-163 -340h-156l-41 340h-4l-62 -340h-241z" />
<glyph unicode="&#x25fc;" horiz-adv-x="972" d="M0 0v973h973v-973h-973z" />
</font>
</defs>
</svg>
