<?xml version="1.0" standalone="no"?>
<!DOCTYPE svg PUBLIC "-//W3C//DTD SVG 1.1//EN" "http://www.w3.org/Graphics/SVG/1.1/DTD/svg11.dtd" >
<svg xmlns="http://www.w3.org/2000/svg" xmlns:xlink="http://www.w3.org/1999/xlink" version="1.1">
<metadata></metadata>
<defs>
<font id="f37_moonbold" horiz-adv-x="1261" >
<font-face units-per-em="2048" ascent="1638" descent="-410" />
<missing-glyph horiz-adv-x="442" />
<glyph unicode="&#xfb01;" horiz-adv-x="1243" d="M76 719v254h147v37q0 182 113.5 287.5t310.5 105.5q33 0 53 -2v-254q-18 2 -45 2q-90 0 -131 -31t-41 -108v-37h623v-973h-260v719h-363v-719h-260v719h-147zM846 1139v262h260v-262h-260z" />
<glyph unicode="&#xfb02;" horiz-adv-x="1241" d="M76 719v254h147v37q0 182 113.5 287.5t310.5 105.5q33 0 53 -2v-254q-18 2 -45 2q-90 0 -131 -31t-41 -108v-37h361v409h260v-1382h-260v719h-361v-719h-260v719h-147z" />
<glyph horiz-adv-x="0" />
<glyph horiz-adv-x="682" />
<glyph unicode=" "  horiz-adv-x="442" />
<glyph unicode="&#x09;" horiz-adv-x="442" />
<glyph unicode="&#xa0;" horiz-adv-x="442" />
<glyph unicode="!" horiz-adv-x="548" d="M141 936v393h267v-393l-56 -487h-155zM145 0v262h261v-262h-261z" />
<glyph unicode="&#x22;" horiz-adv-x="778" d="M88 1350h254l-37 -426h-180zM436 1350h254l-37 -426h-180z" />
<glyph unicode="#" horiz-adv-x="1136" d="M82 356v219h174l41 193h-135v219h182l47 225h199l-47 -225h190l47 225h199l-47 -225h123v-219h-170l-41 -193h131v-219h-178l-47 -225h-199l47 225h-190l-48 -225h-198l47 225h-127zM455 575h190l41 193h-190z" />
<glyph unicode="$" horiz-adv-x="1130" d="M53 207l174 162q93 -115 240 -146v377q-44 15 -77.5 28t-73.5 32.5t-69 40t-58.5 49.5t-47.5 62t-29.5 76t-11.5 93q0 154 101 245.5t266 114.5v222h217v-222q111 -19 206.5 -73t153.5 -133l-167 -164q-78 94 -193 129v-326q63 -22 109.5 -42t99.5 -54.5t86 -73.5 t55.5 -97t22.5 -128q0 -167 -103.5 -264.5t-269.5 -124.5v-221h-217v217q-268 26 -414 221zM352 979q0 -75 115 -127v250q-54 -13 -84.5 -46t-30.5 -77zM684 231q121 37 121 131q0 54 -31 91t-90 67v-289z" />
<glyph unicode="%" horiz-adv-x="1808" d="M55 967q0 163 101 267.5t258 104.5t257.5 -104.5t100.5 -267.5t-100.5 -268t-257.5 -105t-258 105t-101 268zM250 967q0 -86 46.5 -140.5t117.5 -52.5q71 -2 117.5 52.5t46.5 140.5q0 84 -46.5 138t-117.5 54t-117.5 -54t-46.5 -138zM481 0l627 1329h219l-627 -1329h-219 zM1036 367q0 163 101 267.5t258 104.5t257.5 -104.5t100.5 -267.5t-100.5 -268t-257.5 -105t-258 105t-101 268zM1231 367q0 -86 46.5 -140.5t117.5 -52.5q71 -2 117.5 52.5t46.5 140.5q0 84 -46.5 138t-117.5 54t-117.5 -54t-46.5 -138z" />
<glyph unicode="&#x26;" horiz-adv-x="1275" d="M84 365q0 245 227 323q-102 49 -146 122t-44 173q0 169 118 268t355 99q86 0 160 -9v-247q-78 10 -144 10q-110 0 -164.5 -41t-54.5 -111q0 -145 180 -145h215v135h252v-135h156v-246h-156v-315h156v-246h-649q-202 0 -331.5 102t-129.5 263zM354 399q0 -71 52.5 -112 t140.5 -41h239v315h-219q-102 0 -157.5 -42.5t-55.5 -119.5z" />
<glyph unicode="'" horiz-adv-x="430" d="M88 1350h254l-37 -426h-180z" />
<glyph unicode="(" horiz-adv-x="706" d="M74 518q0 273 119.5 485.5t338.5 352.5l148 -195q-167 -127 -253.5 -278t-86.5 -365t86.5 -365t253.5 -278l-148 -194q-219 140 -338.5 352.5t-119.5 484.5z" />
<glyph unicode=")" horiz-adv-x="706" d="M27 -125q167 127 253.5 278t86.5 365t-86.5 365t-253.5 278l147 195q219 -140 339 -353t120 -485t-120 -484.5t-339 -352.5z" />
<glyph unicode="*" horiz-adv-x="749" d="M72 961l166 69l-166 70l92 157l141 -108l-22 178h184l-23 -178l142 108l92 -157l-166 -70l166 -69l-92 -158l-142 106l23 -176h-184l22 176l-141 -106z" />
<glyph unicode="+" d="M123 506v242h387v387h242v-387h387v-242h-387v-387h-242v387h-387z" />
<glyph unicode="," horiz-adv-x="475" d="M80 -172l45 442h256l-115 -442h-186z" />
<glyph unicode="-" horiz-adv-x="847" d="M115 461v237h618v-237h-618z" />
<glyph unicode="." horiz-adv-x="514" d="M113 0v281h288v-281h-288z" />
<glyph unicode="/" horiz-adv-x="776" d="M45 0l434 1329h252l-436 -1329h-250z" />
<glyph unicode="0" horiz-adv-x="1204" d="M109 477v377q0 216 135 356t358 140q224 0 359 -140t135 -356v-377q0 -216 -135 -355.5t-359 -139.5t-358.5 139.5t-134.5 355.5zM375 502q0 -124 60.5 -188t166.5 -64t166.5 64t60.5 188v327q0 124 -60.5 188t-166.5 64t-166.5 -64t-60.5 -188v-327z" />
<glyph unicode="1" horiz-adv-x="718" d="M72 1065v264h485v-1329h-285v1065h-200z" />
<glyph unicode="2" horiz-adv-x="1101" d="M90 0v193l494 538q65 71 93 116t28 103q0 66 -46 106t-122 40q-88 0 -134.5 -54t-46.5 -149h-264q0 205 120 331t327 126q203 0 317.5 -108.5t114.5 -297.5q0 -103 -52 -191.5t-167 -211.5l-250 -273h510v-268h-922z" />
<glyph unicode="3" horiz-adv-x="1067" d="M51 262l219 127q53 -162 242 -162q93 0 149 45.5t56 120.5q0 86 -56 133t-159 47h-72l-119 168l275 342h-461v246h803v-209l-283 -342q158 -34 244 -133t86 -248q0 -188 -127 -301.5t-336 -113.5q-162 0 -282.5 69.5t-178.5 210.5z" />
<glyph unicode="4" horiz-adv-x="1216" d="M51 248v170l418 911h289l-375 -827h324v329h272v-329h182v-254h-182v-248h-272v248h-656z" />
<glyph unicode="5" horiz-adv-x="1079" d="M66 268l225 131q49 -163 239 -163q91 0 146 46.5t55 127.5q0 83 -55.5 132.5t-155.5 49.5h-385l43 737h756v-254h-504l-14 -229h125q201 0 328.5 -116.5t127.5 -315.5q0 -197 -129.5 -314.5t-337.5 -117.5q-164 0 -286 71t-178 215z" />
<glyph unicode="6" horiz-adv-x="1140" d="M80 459q0 76 27 155.5t53 124.5t61 97q7 9 10 14l316 479h317l-289 -438q32 14 89 14q78 0 153 -34.5t133 -92.5t93.5 -141.5t35.5 -175.5q0 -202 -144 -340.5t-355 -138.5q-209 0 -354.5 137.5t-145.5 339.5zM346 453q0 -94 66.5 -155.5t167.5 -61.5t167 61.5t66 155.5 q0 92 -68.5 155.5t-164.5 63.5t-165 -63.5t-69 -155.5z" />
<glyph unicode="7" horiz-adv-x="1056" d="M59 1063v266h942v-231l-534 -1098h-315l538 1063h-631z" />
<glyph unicode="8" horiz-adv-x="1171" d="M84 414q0 119 52 207t143 141q-109 90 -109 239q0 150 112.5 249.5t303.5 99.5t303 -99.5t112 -249.5t-108 -239q91 -53 142.5 -141t51.5 -207q0 -181 -142 -306.5t-359 -125.5t-359.5 125.5t-142.5 306.5zM350 436q0 -90 65.5 -145t170.5 -55t170 55t65 145 q0 83 -66.5 141t-168.5 58q-103 0 -169.5 -58t-66.5 -141zM430 983q0 -61 44 -96t112 -35t111.5 35t43.5 96q0 54 -44.5 91.5t-110.5 37.5t-111 -37.5t-45 -91.5z" />
<glyph unicode="9" horiz-adv-x="1140" d="M61 868q0 202 144.5 341t355.5 139q136 0 251 -62t182 -172.5t67 -243.5q0 -26 -3.5 -52.5t-7.5 -48t-13 -48t-15 -43.5t-19 -42.5t-19 -37t-21 -36t-19 -30.5t-19.5 -29t-15.5 -24l-315 -479h-318l289 438q-32 -14 -88 -14q-104 0 -199.5 57.5t-156 161t-60.5 225.5z M328 877q0 -92 68.5 -156t164.5 -64t165 64t69 156q0 94 -66.5 155.5t-167.5 61.5t-167 -61.5t-66 -155.5z" />
<glyph unicode=":" horiz-adv-x="518" d="M115 0v281h288v-281h-288zM115 682v281h288v-281h-288z" />
<glyph unicode=";" horiz-adv-x="546" d="M111 -172l45 442h256l-115 -442h-186zM135 682v281h289v-281h-289z" />
<glyph unicode="&#x3c;" d="M250 649l559 578l180 -176l-401 -402l401 -401l-180 -176z" />
<glyph unicode="=" d="M123 311v242h1016v-242h-1016zM123 721v242h1016v-242h-1016z" />
<glyph unicode="&#x3e;" d="M272 248l402 401l-402 402l181 176l559 -578l-559 -577z" />
<glyph unicode="?" horiz-adv-x="1009" d="M53 905q0 198 119.5 321.5t325.5 123.5q197 0 311.5 -103t114.5 -266q0 -67 -23 -124.5t-57 -95t-74 -73.5t-74 -63t-57 -61.5t-23 -71.5v-43h-247v51q0 64 31 120.5t74.5 97t87.5 78t75 79t31 83.5q0 72 -46 111t-126 39q-91 0 -139 -54t-48 -149h-256zM362 0v262h261 v-262h-261z" />
<glyph unicode="@" horiz-adv-x="1986" d="M70 371q0 191 70 356.5t193 282.5t296 183.5t372 66.5q201 0 371.5 -65t287.5 -178t183 -269t66 -336q0 -249 -112.5 -394t-305.5 -145q-222 0 -317 162q-55 -50 -114 -74t-145 -24q-70 0 -140.5 30t-128.5 82t-94 132.5t-36 172.5q0 93 35.5 175.5t92.5 137.5t128.5 87 t142.5 32q95 0 154.5 -28t97.5 -86v100h234v-557q0 -60 32 -86.5t78 -26.5q72 0 111 81t39 229q0 279 -174.5 445.5t-485.5 166.5q-313 0 -498.5 -176t-185.5 -477q0 -302 177 -480t477 -178q187 0 329 56l84 -222q-155 -69 -413 -69q-193 0 -360.5 67t-286 184 t-186.5 283.5t-68 358.5zM741 354q0 -79 62 -138.5t147 -59.5q87 0 149 60t62 140q0 88 -61 148.5t-150 60.5q-87 0 -148 -61t-61 -150z" />
<glyph unicode="A" horiz-adv-x="1310" d="M25 0l467 1329h325l469 -1329h-266l-84 240h-547l-80 -240h-284zM473 485h375l-191 543z" />
<glyph unicode="B" horiz-adv-x="1216" d="M158 0v1329h524q171 0 288 -103t117 -272q0 -166 -124 -266q174 -98 174 -301q0 -171 -119 -279t-295 -108h-565zM420 246h303q68 0 111 44t43 113t-43 112.5t-111 43.5h-303v-313zM420 793h262q64 0 103.5 41.5t39.5 103.5t-40.5 104.5t-102.5 42.5h-262v-292z" />
<glyph unicode="C" horiz-adv-x="1370" d="M78 666q0 141 49.5 266t138 217.5t218 146.5t282.5 54q177 0 323 -78.5t240 -218.5l-225 -140q-58 89 -144.5 138t-193.5 49q-118 0 -215 -60t-151 -159t-54 -215t54 -215.5t151 -159.5t215 -60q107 0 193.5 49t144.5 138l225 -139q-94 -140 -240 -218.5t-323 -78.5 q-153 0 -282.5 54t-218 146.5t-138 217.5t-49.5 266z" />
<glyph unicode="D" horiz-adv-x="1413" d="M158 0v1329h514q203 0 354.5 -88.5t229 -237.5t77.5 -337q0 -141 -46 -263t-130 -211.5t-209 -140.5t-276 -51h-514zM422 250h250q175 0 284 111t109 305q0 193 -109 303t-284 110h-250v-829z" />
<glyph unicode="E" horiz-adv-x="1079" d="M158 0v1329h815v-250h-553v-284h502v-246h-502v-297h561v-252h-823z" />
<glyph unicode="F" horiz-adv-x="1026" d="M158 0v1329h798v-250h-532v-313h487v-252h-487v-514h-266z" />
<glyph unicode="G" horiz-adv-x="1466" d="M78 666q0 141 49.5 266t138 217.5t218 146.5t282.5 54q148 0 276 -55.5t222 -155.5l-189 -185q-120 146 -309 146q-118 0 -215 -60t-151 -159t-54 -215t54 -215.5t151 -159.5t215 -60q139 0 243 77.5t124 209.5h-334v219h604q4 -25 4 -73q0 -143 -46.5 -268.5t-129 -217 t-203 -144t-262.5 -52.5q-153 0 -282.5 54t-218 146.5t-138 217.5t-49.5 266z" />
<glyph unicode="H" horiz-adv-x="1363" d="M158 0v1329h266v-530h516v530h266v-1329h-266v549h-516v-549h-266z" />
<glyph unicode="I" horiz-adv-x="581" d="M158 0v1329h266v-1329h-266z" />
<glyph unicode="J" horiz-adv-x="1054" d="M10 162l154 196q100 -127 258 -127q106 0 163.5 70t57.5 211v817h266v-842q0 -242 -130.5 -373.5t-344.5 -131.5q-265 0 -424 180z" />
<glyph unicode="K" horiz-adv-x="1245" d="M158 0v1329h262v-586l475 586h315l-497 -598l542 -731h-317l-393 528l-125 -147v-381h-262z" />
<glyph unicode="L" horiz-adv-x="1019" d="M158 0v1329h291v-1073h534v-256h-825z" />
<glyph unicode="M" horiz-adv-x="1785" d="M158 0v1329h405l330 -1014l328 1014h407v-1329h-266v973l-324 -973h-293l-321 958v-958h-266z" />
<glyph unicode="N" horiz-adv-x="1501" d="M158 0v1329h245l676 -887v887h264v-1329h-245l-676 889v-889h-264z" />
<glyph unicode="O" horiz-adv-x="1531" d="M78 664q0 140 52.5 266.5t143 219t219 146.5t273.5 54q143 0 270.5 -53.5t219 -144.5t145 -218t53.5 -268q0 -142 -53.5 -269t-145.5 -218t-219.5 -144t-269.5 -53q-188 0 -346 89t-250 246t-92 347zM346 662q0 -181 121 -306t299 -125t299 126t121 307q0 182 -121 309 t-299 127q-179 0 -299.5 -128.5t-120.5 -309.5z" />
<glyph unicode="P" horiz-adv-x="1146" d="M158 0v1329h479q197 0 328 -128.5t131 -317.5q0 -187 -130 -317t-329 -130h-213v-436h-266zM424 682h213q86 0 140 57.5t54 143.5q0 88 -53.5 144t-140.5 56h-213v-401z" />
<glyph unicode="Q" horiz-adv-x="1531" d="M78 664q0 140 52.5 266.5t143 219t219 146.5t273.5 54q143 0 270.5 -53.5t219 -144.5t145 -218t53.5 -268q0 -256 -162 -445l142 -147l-187 -166l-149 155q-150 -81 -332 -81q-188 0 -346 89t-250 246t-92 347zM346 662q0 -181 121 -306t299 -125q76 0 147 27l-215 223 l187 166l225 -235q76 116 76 252q0 182 -121 309t-299 127q-179 0 -299.5 -128.5t-120.5 -309.5z" />
<glyph unicode="R" horiz-adv-x="1187" d="M158 0v1329h444q124 0 218.5 -34.5t149 -93.5t81 -130t26.5 -153q0 -130 -59.5 -235.5t-171.5 -156.5l291 -526h-303l-265 489h-159v-489h-252zM410 694h208q102 0 153.5 55t51.5 146q0 92 -51 147.5t-154 55.5h-208v-404z" />
<glyph unicode="S" horiz-adv-x="1150" d="M51 217l185 172q125 -158 333 -158q102 0 169 36t67 104q0 43 -24 76t-65 55.5t-94 42t-111.5 38t-116.5 39.5t-111 51.5t-94 69.5t-65 98t-24 132q0 93 39 166.5t107 118.5t154.5 68.5t185.5 23.5q143 0 273.5 -60.5t203.5 -163.5l-178 -176q-52 68 -133 109t-168 41 q-94 0 -154.5 -33t-60.5 -96q0 -34 24 -61t65 -46.5t93.5 -37t111 -36t117 -40.5t111 -54.5t93.5 -73.5t65 -101t24 -134q0 -82 -27.5 -150.5t-74.5 -115t-111 -78.5t-135.5 -46.5t-149.5 -14.5q-182 0 -309.5 56.5t-214.5 178.5z" />
<glyph unicode="T" horiz-adv-x="1159" d="M35 1081v248h1089v-248h-411v-1081h-267v1081h-411z" />
<glyph unicode="U" horiz-adv-x="1433" d="M143 537v792h267v-780q0 -160 81.5 -239t225.5 -79q143 0 225 79t82 239v780h266v-792q0 -269 -155.5 -412t-417.5 -143t-418 143t-156 412z" />
<glyph unicode="V" horiz-adv-x="1361" d="M20 1329h283l381 -1061l383 1061h274l-499 -1329h-322z" />
<glyph unicode="W" horiz-adv-x="2048" d="M20 1329h277l285 -1020l299 1020h293l296 -1020l287 1020h271l-398 -1329h-321l-285 948l-285 -948h-321z" />
<glyph unicode="X" horiz-adv-x="1251" d="M10 0l455 674l-442 655h313l291 -455l295 455h307l-443 -655l455 -674h-311l-305 473l-308 -473h-307z" />
<glyph unicode="Y" horiz-adv-x="1329" d="M20 1329h312l336 -563l333 563h302l-504 -805v-524h-267v526z" />
<glyph unicode="Z" horiz-adv-x="1169" d="M82 0v207l651 878h-649v244h1001v-207l-649 -878h649v-244h-1003z" />
<glyph unicode="[" horiz-adv-x="788" d="M154 -307v1636h579v-225h-317v-1186h317v-225h-579z" />
<glyph unicode="\" horiz-adv-x="776" d="M45 1329h252l434 -1329h-250z" />
<glyph unicode="]" horiz-adv-x="788" d="M55 -82h318v1186h-318v225h580v-1636h-580v225z" />
<glyph unicode="^" d="M133 598l350 731h295l350 -731h-262l-237 520l-234 -520h-262z" />
<glyph unicode="_" horiz-adv-x="1126" d="M90 -55h946v-238h-946v238z" />
<glyph unicode="`" horiz-adv-x="1228" d="M123 1270l96 215l488 -219l-91 -199z" />
<glyph unicode="a" horiz-adv-x="1236" d="M72 479q0 110 42 208t110 163t152 103t169 38q113 0 184 -34t117 -103v119h254v-973h-260v100q-54 -59 -123 -88.5t-172 -29.5q-84 0 -167.5 36t-152 98.5t-111 158t-42.5 204.5zM319 479q0 -102 80 -179t189 -77q111 0 190.5 77t79.5 181q0 111 -79 190t-191 79 q-111 0 -190 -79.5t-79 -191.5z" />
<glyph unicode="b" horiz-adv-x="1245" d="M137 0v1382h252v-514q47 67 127.5 95t157.5 28q140 0 256 -70.5t181 -188.5t65 -255q0 -132 -66.5 -245.5t-184 -181.5t-257.5 -68q-147 0 -279 100v-82h-252zM389 477q0 -109 78 -181.5t192 -72.5q111 0 190 78t79 176q0 108 -78.5 190.5t-190.5 82.5q-114 0 -192 -77 t-78 -196z" />
<glyph unicode="c" horiz-adv-x="1064" d="M70 487q0 138 68.5 254.5t187.5 184t260 67.5q136 0 251 -62.5t185 -168.5l-215 -125q-37 53 -95 84t-126 31q-110 0 -189.5 -79.5t-79.5 -185.5t79.5 -185t189.5 -79q71 0 131 33.5t96 91.5l213 -127q-69 -109 -186 -174t-254 -65q-141 0 -260 68.5t-187.5 184.5 t-68.5 252z" />
<glyph unicode="d" horiz-adv-x="1247" d="M72 477q0 137 64.5 254.5t180.5 188.5t256 71q77 0 157.5 -28t127.5 -95v514h252v-1382h-252v82q-132 -100 -278 -100q-140 0 -257.5 68t-184 181.5t-66.5 245.5zM319 477q0 -98 79 -176t190 -78q114 0 192 72.5t78 181.5q0 119 -78 196t-192 77q-112 0 -190.5 -82.5 t-78.5 -190.5z" />
<glyph unicode="e" horiz-adv-x="1130" d="M72 485q0 102 35.5 194t99.5 161t159.5 110t208.5 41q140 0 253 -68.5t175 -182.5t62 -248q0 -42 -6 -80h-742q22 -90 93.5 -145.5t177.5 -55.5q70 0 134 26.5t105 79.5l172 -137q-66 -93 -175 -145.5t-234 -52.5q-144 0 -263 66t-187 181.5t-68 255.5zM326 588h485 q-11 74 -79 124t-159 50q-87 0 -153 -47.5t-94 -126.5z" />
<glyph unicode="f" horiz-adv-x="747" d="M76 719v254h147v37q0 182 113.5 287.5t310.5 105.5q33 0 53 -2v-254q-18 2 -45 2q-90 0 -131 -31t-41 -108v-37h217v-254h-217v-719h-260v719h-147z" />
<glyph unicode="g" horiz-adv-x="1236" d="M74 479q0 110 42 208t110 163t152 103t169 38q113 0 184 -34t117 -103v119h254v-930q0 -240 -144 -377t-391 -137q-123 0 -238 31t-198 90l94 219q155 -102 332 -102q128 0 206.5 69t78.5 195v69q-54 -59 -123 -88.5t-172 -29.5q-84 0 -167.5 36t-152 98.5t-111 158 t-42.5 204.5zM322 479q0 -102 79.5 -179t188.5 -77q111 0 190.5 77t79.5 181q0 111 -79 190t-191 79q-110 0 -189 -79.5t-79 -191.5z" />
<glyph unicode="h" horiz-adv-x="1177" d="M137 0v1382h254v-528q90 137 285 137q167 0 271 -100t104 -275v-616h-260v532q0 104 -49.5 161t-139.5 57q-88 0 -146.5 -58t-58.5 -162v-530h-260z" />
<glyph unicode="i" horiz-adv-x="534" d="M137 0v973h260v-973h-260zM137 1139v262h260v-262h-260z" />
<glyph unicode="j" horiz-adv-x="534" d="M-45 -215q20 -2 39 -2q143 0 143 166v1024h260v-1024q0 -212 -97.5 -316t-297.5 -104q-24 0 -47 2v254zM137 1139v262h260v-262h-260z" />
<glyph unicode="k" horiz-adv-x="1097" d="M137 0v1382h260v-768l353 359h323l-397 -412l438 -561h-303l-309 383l-105 -109v-274h-260z" />
<glyph unicode="l" horiz-adv-x="534" d="M137 0v1382h260v-1382h-260z" />
<glyph unicode="m" horiz-adv-x="1765" d="M137 0v973h254v-119q96 137 273 137q102 0 177.5 -39t119.5 -108q32 47 73 78.5t86.5 45.5t82 18.5t81.5 4.5q168 0 261 -102t93 -266v-623h-260v532q0 106 -45 162t-133 56t-135 -58t-47 -162v-530h-260v532q0 105 -46 161.5t-134 56.5q-91 0 -136 -62.5t-45 -165.5 v-522h-260z" />
<glyph unicode="n" horiz-adv-x="1177" d="M137 0v973h254v-119q90 137 285 137q167 0 271 -100t104 -275v-616h-260v532q0 104 -49.5 161t-139.5 57q-88 0 -146.5 -58t-58.5 -162v-530h-260z" />
<glyph unicode="o" horiz-adv-x="1173" d="M70 487q0 209 150.5 356.5t365.5 147.5q142 0 261.5 -67.5t188 -183.5t68.5 -253q0 -136 -68.5 -252t-188 -184.5t-261.5 -68.5q-141 0 -260 68.5t-187.5 184.5t-68.5 252zM317 487q0 -106 79.5 -185t189.5 -79q112 0 191 78.5t79 185.5q0 105 -79.5 184t-190.5 79 q-109 0 -189 -79t-80 -184z" />
<glyph unicode="p" horiz-adv-x="1245" d="M137 -451v1424h252v-105q47 67 127.5 95t157.5 28q140 0 256 -70.5t181 -188.5t65 -255q0 -132 -66.5 -245.5t-184 -181.5t-257.5 -68q-91 0 -153.5 25t-125.5 75v-533h-252zM389 477q0 -109 78 -181.5t192 -72.5q111 0 190 78t79 176q0 108 -78.5 190.5t-190.5 82.5 q-114 0 -192 -77t-78 -196z" />
<glyph unicode="q" horiz-adv-x="1247" d="M72 477q0 137 64.5 254.5t180.5 188.5t256 71q77 0 157.5 -28t127.5 -95v105h252v-1424h-252v533q-63 -50 -125 -75t-153 -25q-140 0 -257.5 68t-184 181.5t-66.5 245.5zM319 477q0 -98 79 -176t190 -78q114 0 192 72.5t78 181.5q0 119 -78 196t-192 77 q-112 0 -190.5 -82.5t-78.5 -190.5z" />
<glyph unicode="r" horiz-adv-x="757" d="M137 0v973h264v-178q36 95 118.5 145.5t193.5 50.5v-295q-16 2 -43 2q-29 0 -59 -4.5t-70 -21.5t-70 -44q-31 -26 -51 -76q-20 -48 -19 -110v-6v-436h-264z" />
<glyph unicode="s" horiz-adv-x="927" d="M39 211l223 117q59 -127 215 -127q133 0 133 73q0 28 -22.5 48.5t-60 32.5t-84.5 26t-97 27t-97 36.5t-84.5 53.5t-60 80t-22.5 114q0 142 109 221.5t276 79.5q123 0 224 -53t159 -152l-221 -116q-51 102 -172 102q-113 0 -113 -72q0 -27 22.5 -47t60 -31.5t84.5 -25 t97 -26t97 -36.5t84.5 -54.5t60 -81t22.5 -115.5q0 -141 -107.5 -222t-293.5 -81q-326 0 -432 229z" />
<glyph unicode="t" horiz-adv-x="753" d="M51 719v254h178v248h260v-248h232v-254h-232v-719h-260v719h-178z" />
<glyph unicode="u" horiz-adv-x="1171" d="M127 377v596h252v-565q0 -94 50 -146.5t140 -52.5q102 0 157.5 61.5t55.5 178.5v524h252v-973h-252v113q-88 -138 -288 -138q-167 0 -267 111t-100 291z" />
<glyph unicode="v" horiz-adv-x="1087" d="M23 973h272l248 -662l250 662h272l-389 -973h-264z" />
<glyph unicode="w" horiz-adv-x="1683" d="M25 973h282l197 -639l229 639h221l224 -639l198 639h285l-350 -973h-248l-219 621l-211 -621h-262z" />
<glyph unicode="x" horiz-adv-x="1024" d="M12 0l357 496l-340 477h288l195 -277l195 277h288l-340 -477l357 -496h-289l-211 295l-211 -295h-289z" />
<glyph unicode="y" horiz-adv-x="1120" d="M12 973h293l266 -649l234 649h297l-604 -1424h-262l208 459z" />
<glyph unicode="z" horiz-adv-x="958" d="M90 0v238l471 507h-471v228h780v-230l-469 -516h469v-227h-780z" />
<glyph unicode="{" horiz-adv-x="798" d="M57 397v228q98 5 140.5 54t42.5 165v217q0 122 72 195t188 73h241v-225h-125q-114 0 -114 -135v-160q0 -239 -207 -297q207 -61 207 -299v-160q0 -135 114 -135h125v-225h-241q-116 0 -188 73t-72 195v217q0 116 -42.5 165t-140.5 54z" />
<glyph unicode="|" horiz-adv-x="569" d="M154 -186v1515h262v-1515h-262z" />
<glyph unicode="}" horiz-adv-x="798" d="M57 -82h125q115 0 115 135v160q0 238 207 299q-207 58 -207 297v160q0 135 -115 135h-125v225h242q116 0 188 -73t72 -195v-217q0 -116 42 -165t140 -54v-228q-98 -5 -140 -54t-42 -165v-217q0 -122 -72 -195t-188 -73h-242v225z" />
<glyph unicode="~" d="M117 504q0 144 75.5 225.5t217.5 81.5q76 0 155.5 -19.5t147 -39t112.5 -19.5q76 0 76 78h252q0 -142 -75.5 -224.5t-209.5 -82.5q-80 0 -164 19.5t-148 39t-97 19.5q-90 0 -90 -78h-252z" />
<glyph unicode="&#xa1;" horiz-adv-x="524" d="M129 37l55 487h156l55 -487v-393h-266v393zM133 711v262h260v-262h-260z" />
<glyph unicode="&#xa2;" horiz-adv-x="1026" d="M74 664q0 164 100.5 290t257.5 166v209h230v-207q94 -20 172.5 -75t130.5 -138l-215 -123q-32 52 -83.5 80.5t-113.5 28.5q-102 0 -168 -66.5t-66 -164.5q0 -99 66 -164.5t168 -65.5q64 0 118 31.5t85 87.5l211 -127q-51 -84 -130 -140.5t-175 -78.5v-207h-230v209 q-156 40 -257 166.5t-101 288.5z" />
<glyph unicode="&#xa3;" horiz-adv-x="1128" d="M94 0v219q97 87 138.5 140.5t52.5 121.5h-181v232h146q-3 6 -20.5 38t-23.5 46.5t-17 44.5t-15 61.5t-4 69.5q0 169 117 273t319 104q208 0 325.5 -124.5t117.5 -314.5h-265q0 75 -47 130t-133 55q-78 0 -123 -40t-45 -106q0 -25 4 -50t8 -42.5t14 -41.5t15 -34.5t18 -36 t17 -32.5h373v-232h-338q-22 -105 -144 -213h633v-268h-942z" />
<glyph unicode="&#xa4;" horiz-adv-x="1257" d="M84 305l149 152q-65 100 -65 233q0 128 65 236l-149 151l158 158l159 -158q102 51 230 51q125 0 227 -51l158 158l158 -158l-148 -149q68 -108 68 -238q0 -131 -68 -235l148 -150l-158 -158l-158 158q-102 -51 -227 -51q-128 0 -230 51l-159 -158zM408 690q0 -95 63 -156 t160 -61t160 61t63 156t-63 157t-160 62t-160 -62t-63 -157z" />
<glyph unicode="&#xa5;" horiz-adv-x="1392" d="M53 1329h312l335 -563l334 563h301l-313 -500h240v-190h-359l-72 -115v-47h431v-190h-431v-287h-266v287h-432v190h432v49l-71 113h-361v190h240z" />
<glyph unicode="&#xa6;" horiz-adv-x="569" d="M154 -186v583h262v-583h-262zM154 745v584h262v-584h-262z" />
<glyph unicode="&#xa7;" horiz-adv-x="1062" d="M88 561q0 168 152 246q-125 79 -125 227q0 141 118.5 228.5t323.5 87.5q120 0 233 -50.5t177 -134.5l-160 -147q-104 123 -250 123q-105 0 -152 -30t-47 -75q0 -34 34 -62t88.5 -49t120 -42.5t131.5 -50t120.5 -65t88.5 -93.5t34 -129q0 -168 -152 -246q125 -79 125 -227 q0 -141 -118.5 -228.5t-323.5 -87.5q-120 0 -233 50.5t-177 134.5l160 147q104 -123 250 -123q105 0 152 30t47 75q0 35 -34 62.5t-88.5 48.5t-120 42.5t-131.5 50t-120.5 65t-88.5 93.5t-34 129zM330 594q0 -20 5 -37.5t12 -31.5t21.5 -27t26.5 -22.5t34 -20.5t36.5 -17.5 t42 -16t43.5 -14t47.5 -14t46.5 -14.5q88 38 88 133q0 20 -5 37.5t-12 31.5t-21.5 27t-26.5 22.5t-34 20.5t-36.5 17.5t-42 16t-43.5 14t-47.5 14t-46.5 14.5q-88 -38 -88 -133z" />
<glyph unicode="&#xa8;" horiz-adv-x="1228" d="M162 1137v266h268v-266h-268zM612 1137v266h269v-266h-269z" />
<glyph unicode="&#xa9;" horiz-adv-x="1531" d="M78 664q0 194 89 351t246.5 246t352.5 89t352.5 -89t246.5 -246t89 -351q0 -145 -54 -272t-146.5 -216.5t-219.5 -141.5t-268 -52t-268 52t-219.5 141.5t-146.5 216.5t-54 272zM258 662q0 -230 144 -373.5t364 -143.5t364 143.5t144 373.5q0 232 -143.5 378t-364.5 146 t-364.5 -146t-143.5 -378zM393 666q0 158 113.5 269.5t273.5 111.5q103 0 190 -47t140 -128l-162 -94q-29 39 -73 62.5t-95 23.5q-83 0 -141.5 -59t-58.5 -139t59 -139.5t141 -59.5q53 0 98.5 25.5t73.5 68.5l160 -96q-52 -83 -140.5 -131.5t-191.5 -48.5q-159 0 -273 112.5 t-114 268.5z" />
<glyph unicode="&#xaa;" horiz-adv-x="915" d="M70 999q0 146 98.5 244t218.5 98q141 0 203 -92v80h203v-651h-207v67q-76 -79 -199 -79q-75 0 -147 40t-121 118t-49 175zM272 1006q0 -59 41.5 -101.5t102.5 -42.5t102 42.5t41 101.5q0 56 -41.5 97.5t-101.5 41.5q-61 0 -102.5 -41.5t-41.5 -97.5z" />
<glyph unicode="&#xab;" horiz-adv-x="1142" d="M51 475l301 363h271l-295 -363l295 -362h-275zM489 475l302 363h270l-295 -363l295 -362h-275z" />
<glyph unicode="&#xac;" d="M115 506v242h1015v-543h-266v301h-749z" />
<glyph unicode="&#xad;" horiz-adv-x="847" d="M115 461v237h618v-237h-618z" />
<glyph unicode="&#xae;" horiz-adv-x="1531" d="M78 664q0 194 89 351t246.5 246t352.5 89t352.5 -89t246.5 -246t89 -351q0 -145 -54 -272t-146.5 -216.5t-219.5 -141.5t-268 -52t-268 52t-219.5 141.5t-146.5 216.5t-54 272zM258 662q0 -230 144 -373.5t364 -143.5t364 143.5t144 373.5q0 232 -143.5 378t-364.5 146 t-364.5 -146t-143.5 -378zM522 322v722h273q125 0 203.5 -64t78.5 -167q0 -72 -37 -129.5t-100 -85.5l160 -276h-215l-129 251h-47v-251h-187zM709 719h96q40 0 66 23.5t26 58.5q0 37 -25.5 60.5t-66.5 23.5h-96v-166z" />
<glyph unicode="&#xaf;" horiz-adv-x="1228" d="M123 1165v230h692v-230h-692z" />
<glyph unicode="&#xb0;" horiz-adv-x="761" d="M70 1034q0 132 88 218.5t223 86.5t223 -86.5t88 -218.5t-88 -218.5t-223 -86.5t-223 86.5t-88 218.5zM258 1034q0 -52 34.5 -85.5t88.5 -35.5q52 -1 87.5 33.5t35.5 87.5t-34.5 87t-88.5 34t-88.5 -34t-34.5 -87z" />
<glyph unicode="&#xb1;" d="M123 57v242h1016v-242h-1016zM123 688v242h387v305h242v-305h387v-242h-387v-305h-242v305h-387z" />
<glyph unicode="&#xb2;" horiz-adv-x="823" d="M104 1044q0 145 80 221t228 76q136 0 211 -66t75 -183q0 -77 -37.5 -144t-121.5 -137l-72 -59h252v-203h-606v170l258 213q53 44 75.5 73t22.5 58q0 59 -61 59q-36 0 -55 -21t-19 -57h-230z" />
<glyph unicode="&#xb3;" horiz-adv-x="765" d="M70 770l204 72q15 -50 40.5 -71t68.5 -21q36 0 56 16.5t20 46.5q0 70 -97 70h-14l-78 112l127 131h-282v203h536v-203l-123 -139q58 -15 94 -51t48 -72.5t12 -77.5q0 -101 -80 -175t-219 -74q-130 0 -211 63.5t-102 169.5z" />
<glyph unicode="&#xb4;" horiz-adv-x="1228" d="M123 1266l487 219l97 -215l-494 -203z" />
<glyph unicode="&#xb5;" horiz-adv-x="1171" d="M137 -262v1235h252v-524q0 -117 55.5 -178.5t157.5 -61.5q91 0 141 52.5t50 146.5v565h251v-596q0 -180 -99.5 -291t-266.5 -111q-200 0 -289 138v-375h-252z" />
<glyph unicode="&#xb6;" horiz-adv-x="1343" d="M53 911q0 186 109 302t303 116h786v-213h-114v-1302h-213v1302h-181v-1302h-233v682h-45q-197 0 -304.5 116.5t-107.5 298.5z" />
<glyph unicode="&#xb7;" horiz-adv-x="518" d="M115 426v281h288v-281h-288z" />
<glyph unicode="&#xb8;" horiz-adv-x="1228" d="M113 -428l106 127q19 -20 53 -33.5t66 -13.5q78 0 78 53q0 55 -97 55h-120l71 240h170l-28 -96h16q86 0 142.5 -52.5t56.5 -144.5q0 -97 -74 -158t-197 -61q-147 0 -243 84z" />
<glyph unicode="&#xb9;" horiz-adv-x="622" d="M51 1104v225h447v-780h-262v555h-185z" />
<glyph unicode="&#xba;" horiz-adv-x="835" d="M68 1006q0 142 98 238.5t252 96.5t252 -98.5t98 -241.5q0 -140 -98 -237.5t-252 -97.5t-252 98.5t-98 241.5zM283 1004q0 -56 38 -95t97 -39t97 39t38 95t-38 94.5t-97 38.5t-97 -38.5t-38 -94.5z" />
<glyph unicode="&#xbb;" horiz-adv-x="1142" d="M82 113l295 362l-295 363h270l301 -363l-297 -362h-274zM520 113l295 362l-295 363h271l301 -363l-297 -362h-275z" />
<glyph unicode="&#xbc;" horiz-adv-x="1697" d="M51 1104v225h447v-780h-262v555h-185zM367 0l626 1329h219l-626 -1329h-219zM944 145v205l148 430h254l-152 -430h137v168h234v-168h77v-205h-77v-145h-234v145h-387z" />
<glyph unicode="&#xbd;" horiz-adv-x="1689" d="M51 1104v225h447v-780h-262v555h-185zM369 0l626 1329h219l-626 -1329h-219zM1004 496q0 145 80 221t227 76q136 0 211 -66t75 -184q0 -77 -37.5 -144t-121.5 -137l-72 -59h252v-203h-606v170l258 213q53 44 75.5 73t22.5 58q0 59 -61 59q-36 0 -55 -20.5t-19 -56.5h-229 z" />
<glyph unicode="&#xbe;" horiz-adv-x="1818" d="M57 770l205 72q15 -50 40.5 -71t68.5 -21q36 0 55.5 16.5t19.5 46.5q0 70 -96 70h-14l-78 112l127 131h-283v203h537v-203l-123 -139q58 -15 94 -51t48 -72.5t12 -77.5q0 -101 -80 -175t-219 -74q-130 0 -211.5 63.5t-102.5 169.5zM489 0l627 1329h219l-626 -1329h-220z M1067 145v205l147 430h254l-151 -430h137v168h234v-168h77v-205h-77v-145h-234v145h-387z" />
<glyph unicode="&#xbf;" horiz-adv-x="985" d="M68 -8q0 58 17 108.5t44 86.5t59.5 67.5t65.5 58.5t60 52t44 54.5t17 61.5v43h248v-51q0 -64 -31 -120.5t-75 -97.5t-87.5 -78.5t-74.5 -79t-31 -83.5q0 -72 46 -110.5t126 -38.5q91 0 138.5 54t47.5 149h256q0 -199 -119 -322t-325 -123q-197 0 -311.5 103t-114.5 266z M369 711v262h260v-262h-260z" />
<glyph unicode="&#xc0;" horiz-adv-x="1310" d="M25 0l467 1329h325l469 -1329h-266l-84 240h-547l-80 -240h-284zM358 1608l105 235l487 -219l-98 -219zM473 485h375l-191 543z" />
<glyph unicode="&#xc1;" horiz-adv-x="1310" d="M25 0l467 1329h325l469 -1329h-266l-84 240h-547l-80 -240h-284zM358 1624l488 219l104 -235l-493 -203zM473 485h375l-191 543z" />
<glyph unicode="&#xc2;" horiz-adv-x="1310" d="M25 0l467 1329h325l469 -1329h-266l-84 240h-547l-80 -240h-284zM268 1591l320 238h135l319 -238l-118 -180l-269 191l-268 -191zM473 485h375l-191 543z" />
<glyph unicode="&#xc3;" horiz-adv-x="1310" d="M25 0l467 1329h325l469 -1329h-266l-84 240h-547l-80 -240h-284zM244 1487q0 144 65 225.5t187 81.5q56 0 114 -19.5t103.5 -39t72.5 -19.5q35 0 52.5 17.5t17.5 60.5h211q0 -142 -64.5 -224.5t-179.5 -82.5q-60 0 -118.5 19.5t-103.5 39t-71 19.5q-75 0 -75 -78h-211z M473 485h375l-191 543z" />
<glyph unicode="&#xc4;" horiz-adv-x="1310" d="M25 0l467 1329h325l469 -1329h-266l-84 240h-547l-80 -240h-284zM272 1477v288h295v-288h-295zM473 485h375l-191 543zM743 1477v288h295v-288h-295z" />
<glyph unicode="&#xc5;" horiz-adv-x="1310" d="M25 0l467 1329h325l469 -1329h-266l-84 240h-547l-80 -240h-284zM381 1669q0 109 77.5 185.5t196.5 76.5t197 -76.5t78 -185.5q0 -110 -77.5 -186t-197.5 -76t-197 75.5t-77 186.5zM473 485h375l-191 543zM557 1669q0 -41 27.5 -68.5t70.5 -27.5t71 27.5t28 68.5 t-28 68.5t-71 27.5t-70.5 -27.5t-27.5 -68.5z" />
<glyph unicode="&#xc6;" horiz-adv-x="1830" d="M-29 0l807 1329h946v-250h-553v-284h502v-246h-502v-297h562v-252h-824v260h-479l-151 -260h-308zM575 506h334v571z" />
<glyph unicode="&#xc7;" horiz-adv-x="1370" d="M78 666q0 141 49.5 266t138 217.5t218 146.5t282.5 54q177 0 323 -78.5t240 -218.5l-225 -140q-58 89 -144.5 138t-193.5 49q-118 0 -215 -60t-151 -159t-54 -215t54 -215.5t151 -159.5t215 -60q107 0 193.5 49t144.5 138l225 -139q-87 -131 -219 -208t-293 -87l-24 -80 h16q86 0 142.5 -52.5t56.5 -144.5q0 -97 -74 -158t-197 -61q-147 0 -243 84l106 127q19 -20 53 -33.5t66 -13.5q78 0 78 53q0 55 -97 55h-120l69 230q-172 26 -302.5 122.5t-199.5 240t-69 313.5z" />
<glyph unicode="&#xc8;" horiz-adv-x="1079" d="M158 0v1329h815v-250h-553v-284h502v-246h-502v-297h561v-252h-823zM303 1608l105 235l487 -219l-98 -219z" />
<glyph unicode="&#xc9;" horiz-adv-x="1079" d="M158 0v1329h815v-250h-553v-284h502v-246h-502v-297h561v-252h-823zM303 1624l488 219l104 -235l-494 -203z" />
<glyph unicode="&#xca;" horiz-adv-x="1079" d="M158 0v1329h815v-250h-553v-284h502v-246h-502v-297h561v-252h-823zM213 1591l319 238h136l319 -238l-119 -180l-268 191l-268 -191z" />
<glyph unicode="&#xcb;" horiz-adv-x="1079" d="M158 0v1329h815v-250h-553v-284h502v-246h-502v-297h561v-252h-823zM217 1477v288h295v-288h-295zM688 1477v288h295v-288h-295z" />
<glyph unicode="&#xcc;" horiz-adv-x="581" d="M-6 1608l104 235l488 -219l-99 -219zM158 0v1329h266v-1329h-266z" />
<glyph unicode="&#xcd;" horiz-adv-x="581" d="M-6 1624l487 219l105 -235l-494 -203zM158 0v1329h266v-1329h-266z" />
<glyph unicode="&#xce;" horiz-adv-x="581" d="M-96 1591l319 238h135l320 -238l-119 -180l-268 191l-268 -191zM158 0v1329h266v-1329h-266z" />
<glyph unicode="&#xcf;" horiz-adv-x="581" d="M-92 1477v288h295v-288h-295zM158 0v1329h266v-1329h-266zM379 1477v288h295v-288h-295z" />
<glyph unicode="&#xd0;" horiz-adv-x="1441" d="M41 551v229h145v549h514q153 0 278.5 -51t209 -140.5t129 -210.5t45.5 -261q0 -189 -79 -339.5t-231 -238.5t-352 -88h-514v551h-145zM451 250h249q176 0 285 111t109 305q0 193 -109 303t-285 110h-249v-299h311v-229h-311v-301z" />
<glyph unicode="&#xd1;" horiz-adv-x="1501" d="M158 0v1329h245l676 -887v887h264v-1329h-245l-676 889v-889h-264zM340 1487q0 144 65 225.5t187 81.5q56 0 114.5 -19.5t104 -39t72.5 -19.5q35 0 52 17.5t17 60.5h211q0 -142 -64 -224.5t-179 -82.5q-60 0 -118.5 19.5t-103.5 39t-71 19.5q-76 0 -76 -78h-211z" />
<glyph unicode="&#xd2;" horiz-adv-x="1531" d="M78 664q0 140 52.5 266.5t143 219t219 146.5t273.5 54q143 0 270.5 -53.5t219 -144.5t145 -218t53.5 -268q0 -142 -53.5 -269t-145.5 -218t-219.5 -144t-269.5 -53q-188 0 -346 89t-250 246t-92 347zM346 662q0 -181 121 -306t299 -125t299 126t121 307q0 182 -121 309 t-299 127q-179 0 -299.5 -128.5t-120.5 -309.5zM469 1608l104 235l488 -219l-98 -219z" />
<glyph unicode="&#xd3;" horiz-adv-x="1531" d="M78 664q0 140 52.5 266.5t143 219t219 146.5t273.5 54q143 0 270.5 -53.5t219 -144.5t145 -218t53.5 -268q0 -142 -53.5 -269t-145.5 -218t-219.5 -144t-269.5 -53q-188 0 -346 89t-250 246t-92 347zM346 662q0 -181 121 -306t299 -125t299 126t121 307q0 182 -121 309 t-299 127q-179 0 -299.5 -128.5t-120.5 -309.5zM469 1624l487 219l105 -235l-494 -203z" />
<glyph unicode="&#xd4;" horiz-adv-x="1531" d="M78 664q0 140 52.5 266.5t143 219t219 146.5t273.5 54q143 0 270.5 -53.5t219 -144.5t145 -218t53.5 -268q0 -142 -53.5 -269t-145.5 -218t-219.5 -144t-269.5 -53q-188 0 -346 89t-250 246t-92 347zM346 662q0 -181 121 -306t299 -125t299 126t121 307q0 182 -121 309 t-299 127q-179 0 -299.5 -128.5t-120.5 -309.5zM379 1591l319 238h136l319 -238l-119 -180l-268 191l-268 -191z" />
<glyph unicode="&#xd5;" horiz-adv-x="1531" d="M78 664q0 140 52.5 266.5t143 219t219 146.5t273.5 54q143 0 270.5 -53.5t219 -144.5t145 -218t53.5 -268q0 -142 -53.5 -269t-145.5 -218t-219.5 -144t-269.5 -53q-188 0 -346 89t-250 246t-92 347zM346 662q0 -181 121 -306t299 -125t299 126t121 307q0 182 -121 309 t-299 127q-179 0 -299.5 -128.5t-120.5 -309.5zM354 1487q0 144 65 225.5t187 81.5q56 0 114.5 -19.5t104 -39t72.5 -19.5q35 0 52.5 17.5t17.5 60.5h211q0 -142 -64.5 -224.5t-179.5 -82.5q-60 0 -118.5 19.5t-103.5 39t-71 19.5q-76 0 -76 -78h-211z" />
<glyph unicode="&#xd6;" horiz-adv-x="1531" d="M78 664q0 140 52.5 266.5t143 219t219 146.5t273.5 54q143 0 270.5 -53.5t219 -144.5t145 -218t53.5 -268q0 -142 -53.5 -269t-145.5 -218t-219.5 -144t-269.5 -53q-188 0 -346 89t-250 246t-92 347zM346 662q0 -181 121 -306t299 -125t299 126t121 307q0 182 -121 309 t-299 127q-179 0 -299.5 -128.5t-120.5 -309.5zM383 1477v288h295v-288h-295zM854 1477v288h295v-288h-295z" />
<glyph unicode="&#xd7;" d="M162 328l299 299l-299 297l170 172l299 -299l299 299l170 -172l-297 -297l297 -299l-170 -172l-299 299l-299 -299z" />
<glyph unicode="&#xd8;" horiz-adv-x="1564" d="M51 113l164 163q-119 171 -119 388q0 140 52.5 266.5t143 219t219 146.5t273.5 54q216 0 392 -117l151 151l178 -180l-151 -149q119 -174 119 -389q0 -189 -91.5 -346.5t-249.5 -247.5t-348 -90q-215 0 -389 116l-166 -166zM365 662q0 -102 43 -193l581 578 q-92 53 -205 53q-179 0 -299 -128.5t-120 -309.5zM582 283q93 -52 202 -52q178 0 299 126t121 307q0 102 -43 196z" />
<glyph unicode="&#xd9;" horiz-adv-x="1433" d="M143 537v792h267v-780q0 -160 81.5 -239t225.5 -79q143 0 225 79t82 239v780h266v-792q0 -269 -155.5 -412t-417.5 -143t-418 143t-156 412zM420 1608l104 235l488 -219l-99 -219z" />
<glyph unicode="&#xda;" horiz-adv-x="1433" d="M143 537v792h267v-780q0 -160 81.5 -239t225.5 -79q143 0 225 79t82 239v780h266v-792q0 -269 -155.5 -412t-417.5 -143t-418 143t-156 412zM420 1624l487 219l105 -235l-494 -203z" />
<glyph unicode="&#xdb;" horiz-adv-x="1433" d="M143 537v792h267v-780q0 -160 81.5 -239t225.5 -79q143 0 225 79t82 239v780h266v-792q0 -269 -155.5 -412t-417.5 -143t-418 143t-156 412zM330 1591l319 238h135l320 -238l-119 -180l-268 191l-268 -191z" />
<glyph unicode="&#xdc;" horiz-adv-x="1433" d="M143 537v792h267v-780q0 -160 81.5 -239t225.5 -79q143 0 225 79t82 239v780h266v-792q0 -269 -155.5 -412t-417.5 -143t-418 143t-156 412zM334 1477v288h295v-288h-295zM805 1477v288h295v-288h-295z" />
<glyph unicode="&#xdd;" horiz-adv-x="1329" d="M20 1329h312l336 -563l333 563h302l-504 -805v-524h-267v526zM365 1624l487 219l104 -235l-493 -203z" />
<glyph unicode="&#xde;" horiz-adv-x="1148" d="M158 0v1329h262v-215h205q193 0 323.5 -129t130.5 -317q0 -122 -58 -224t-162.5 -162.5t-233.5 -60.5h-205v-221h-262zM420 467h205q85 0 139.5 57.5t54.5 143.5q0 88 -54 144t-140 56h-205v-401z" />
<glyph unicode="&#xdf;" horiz-adv-x="1150" d="M137 0v938q0 99 27.5 182t81.5 147t142 100t202 36q196 0 310 -104.5t114 -270.5q0 -109 -50.5 -186.5t-132.5 -120.5q110 -35 179 -121.5t69 -208.5q0 -191 -133.5 -291t-349.5 -100h-86v240h78q243 0 243 186q0 77 -58 124.5t-169 47.5h-94v229h55q96 0 148.5 47 t52.5 132q0 68 -45.5 113.5t-132.5 45.5q-98 0 -148.5 -60.5t-50.5 -162.5v-942h-252z" />
<glyph unicode="&#xe0;" horiz-adv-x="1236" d="M72 479q0 110 42 208t110 163t152 103t169 38q113 0 184 -34t117 -103v119h254v-973h-260v100q-54 -59 -123 -88.5t-172 -29.5q-84 0 -167.5 36t-152 98.5t-111 158t-42.5 204.5zM313 1270l97 215l487 -219l-90 -199zM319 479q0 -102 80 -179t189 -77q111 0 190.5 77 t79.5 181q0 111 -79 190t-191 79q-111 0 -190 -79.5t-79 -191.5z" />
<glyph unicode="&#xe1;" horiz-adv-x="1236" d="M72 479q0 110 42 208t110 163t152 103t169 38q113 0 184 -34t117 -103v119h254v-973h-260v100q-54 -59 -123 -88.5t-172 -29.5q-84 0 -167.5 36t-152 98.5t-111 158t-42.5 204.5zM313 1266l488 219l96 -215l-494 -203zM319 479q0 -102 80 -179t189 -77q111 0 190.5 77 t79.5 181q0 111 -79 190t-191 79q-111 0 -190 -79.5t-79 -191.5z" />
<glyph unicode="&#xe2;" horiz-adv-x="1236" d="M72 479q0 110 42 208t110 163t152 103t169 38q113 0 184 -34t117 -103v119h254v-973h-260v100q-54 -59 -123 -88.5t-172 -29.5q-84 0 -167.5 36t-152 98.5t-111 158t-42.5 204.5zM219 1247l320 238h135l319 -238l-119 -180l-268 190l-268 -190zM319 479q0 -102 80 -179 t189 -77q111 0 190.5 77t79.5 181q0 111 -79 190t-191 79q-111 0 -190 -79.5t-79 -191.5z" />
<glyph unicode="&#xe3;" horiz-adv-x="1236" d="M72 479q0 110 42 208t110 163t152 103t169 38q113 0 184 -34t117 -103v119h254v-973h-260v100q-54 -59 -123 -88.5t-172 -29.5q-84 0 -167.5 36t-152 98.5t-111 158t-42.5 204.5zM195 1118q0 144 64.5 225.5t186.5 81.5q56 0 114.5 -21.5t104 -43t72.5 -21.5 q40 0 60 19.5t20 66.5h201q0 -142 -64.5 -224.5t-179.5 -82.5q-60 0 -118.5 22t-103.5 44t-71 22q-86 0 -86 -88h-200zM319 479q0 -102 80 -179t189 -77q111 0 190.5 77t79.5 181q0 111 -79 190t-191 79q-111 0 -190 -79.5t-79 -191.5z" />
<glyph unicode="&#xe4;" horiz-adv-x="1236" d="M72 479q0 110 42 208t110 163t152 103t169 38q113 0 184 -34t117 -103v119h254v-973h-260v100q-54 -59 -123 -88.5t-172 -29.5q-84 0 -167.5 36t-152 98.5t-111 158t-42.5 204.5zM248 1137v266h268v-266h-268zM319 479q0 -102 80 -179t189 -77q111 0 190.5 77t79.5 181 q0 111 -79 190t-191 79q-111 0 -190 -79.5t-79 -191.5zM698 1137v266h269v-266h-269z" />
<glyph unicode="&#xe5;" horiz-adv-x="1236" d="M72 479q0 110 42 208t110 163t152 103t169 38q113 0 184 -34t117 -103v119h254v-973h-260v100q-54 -59 -123 -88.5t-172 -29.5q-84 0 -167.5 36t-152 98.5t-111 158t-42.5 204.5zM319 479q0 -102 80 -179t189 -77q111 0 190.5 77t79.5 181q0 111 -79 190t-191 79 q-111 0 -190 -79.5t-79 -191.5zM344 1311q0 105 74 177.5t188 72.5t188 -72.5t74 -177.5q0 -106 -74 -178t-188 -72t-188 72t-74 178zM508 1311q0 -41 27.5 -69t70.5 -28t71 28t28 69t-27.5 68.5t-71.5 27.5q-43 0 -70.5 -27.5t-27.5 -68.5z" />
<glyph unicode="&#xe6;" horiz-adv-x="1918" d="M72 479q0 110 42 208t110 163t152 103t169 38q113 0 184 -34t117 -103v119h254v-66q117 84 272 84q108 0 199 -40t152.5 -108t95.5 -159t34 -192q0 -42 -6 -80h-741q22 -91 93 -146t177 -55q70 0 134.5 26.5t105.5 79.5l172 -137q-66 -94 -170.5 -146t-231.5 -52 q-161 0 -286 92v-74h-260v100q-54 -59 -123 -88.5t-172 -29.5q-84 0 -167.5 36t-152 98.5t-111 158t-42.5 204.5zM319 479q0 -102 80 -179t189 -77q111 0 190.5 77t79.5 181q0 111 -79 190t-191 79q-111 0 -190 -79.5t-79 -191.5zM1114 588h485q-11 74 -79 124t-158 50 q-87 0 -153.5 -47.5t-94.5 -126.5z" />
<glyph unicode="&#xe7;" horiz-adv-x="1064" d="M70 487q0 138 68.5 254.5t187.5 184t260 67.5q136 0 251 -62.5t185 -168.5l-215 -125q-37 53 -95 84t-126 31q-110 0 -189.5 -79.5t-79.5 -185.5t79.5 -185t189.5 -79q71 0 131 33.5t96 91.5l213 -127q-56 -90 -146 -150.5t-198 -80.5l-27 -86h17q86 0 142 -52.5 t56 -144.5q0 -97 -73.5 -158t-196.5 -61q-148 0 -244 84l107 127q19 -20 53 -33.5t66 -13.5q77 0 77 53q0 55 -96 55h-121l68 228q-188 26 -314 168.5t-126 330.5z" />
<glyph unicode="&#xe8;" horiz-adv-x="1130" d="M72 485q0 102 35.5 194t99.5 161t159.5 110t208.5 41q140 0 253 -68.5t175 -182.5t62 -248q0 -42 -6 -80h-742q22 -90 93.5 -145.5t177.5 -55.5q70 0 134 26.5t105 79.5l172 -137q-66 -93 -175 -145.5t-234 -52.5q-144 0 -263 66t-187 181.5t-68 255.5zM276 1270l97 215 l487 -219l-90 -199zM326 588h485q-11 74 -79 124t-159 50q-87 0 -153 -47.5t-94 -126.5z" />
<glyph unicode="&#xe9;" horiz-adv-x="1130" d="M72 485q0 102 35.5 194t99.5 161t159.5 110t208.5 41q140 0 253 -68.5t175 -182.5t62 -248q0 -42 -6 -80h-742q22 -90 93.5 -145.5t177.5 -55.5q70 0 134 26.5t105 79.5l172 -137q-66 -93 -175 -145.5t-234 -52.5q-144 0 -263 66t-187 181.5t-68 255.5zM276 1266l488 219 l96 -215l-493 -203zM326 588h485q-11 74 -79 124t-159 50q-87 0 -153 -47.5t-94 -126.5z" />
<glyph unicode="&#xea;" horiz-adv-x="1130" d="M72 485q0 102 35.5 194t99.5 161t159.5 110t208.5 41q140 0 253 -68.5t175 -182.5t62 -248q0 -42 -6 -80h-742q22 -90 93.5 -145.5t177.5 -55.5q70 0 134 26.5t105 79.5l172 -137q-66 -93 -175 -145.5t-234 -52.5q-144 0 -263 66t-187 181.5t-68 255.5zM182 1247l320 238 h135l319 -238l-118 -180l-269 190l-268 -190zM326 588h485q-11 74 -79 124t-159 50q-87 0 -153 -47.5t-94 -126.5z" />
<glyph unicode="&#xeb;" horiz-adv-x="1130" d="M72 485q0 102 35.5 194t99.5 161t159.5 110t208.5 41q140 0 253 -68.5t175 -182.5t62 -248q0 -42 -6 -80h-742q22 -90 93.5 -145.5t177.5 -55.5q70 0 134 26.5t105 79.5l172 -137q-66 -93 -175 -145.5t-234 -52.5q-144 0 -263 66t-187 181.5t-68 255.5zM211 1137v266h268 v-266h-268zM326 588h485q-11 74 -79 124t-159 50q-87 0 -153 -47.5t-94 -126.5zM662 1137v266h268v-266h-268z" />
<glyph unicode="&#xec;" horiz-adv-x="534" d="M-25 1270l97 215l487 -219l-90 -199zM137 0v973h260v-973h-260z" />
<glyph unicode="&#xed;" horiz-adv-x="534" d="M-25 1266l488 219l96 -215l-493 -203zM137 0v973h260v-973h-260z" />
<glyph unicode="&#xee;" horiz-adv-x="534" d="M-119 1247l320 238h135l319 -238l-118 -180l-269 190l-268 -190zM137 0v973h260v-973h-260z" />
<glyph unicode="&#xef;" horiz-adv-x="534" d="M-90 1137v266h268v-266h-268zM137 0v973h260v-973h-260zM360 1137v266h269v-266h-269z" />
<glyph unicode="&#xf0;" horiz-adv-x="1171" d="M72 463q0 199 147 339t356 140q120 0 199 -61q-47 126 -153 206l-60 -106l-186 98l57 101q-67 18 -137 18v205q131 0 246 -31l65 115l185 -94l-60 -105q178 -115 264 -315.5t86 -429.5q0 -138 -39.5 -246.5t-108.5 -176t-160 -103t-198 -35.5q-137 0 -253 65t-183 175.5 t-67 240.5zM319 463q0 -102 75.5 -177t180.5 -75q107 0 183 75t76 177q0 101 -76.5 175.5t-182.5 74.5q-105 0 -180.5 -74.5t-75.5 -175.5z" />
<glyph unicode="&#xf1;" horiz-adv-x="1177" d="M137 0v973h254v-119q90 137 285 137q167 0 271 -100t104 -275v-616h-260v532q0 104 -49.5 161t-139.5 57q-88 0 -146.5 -58t-58.5 -162v-530h-260zM182 1118q0 144 65 225.5t187 81.5q56 0 114.5 -21.5t104 -43t72.5 -21.5q40 0 60 19.5t20 66.5h201q0 -142 -64.5 -224.5 t-179.5 -82.5q-60 0 -118.5 22t-103.5 44t-71 22q-86 0 -86 -88h-201z" />
<glyph unicode="&#xf2;" horiz-adv-x="1173" d="M70 487q0 209 150.5 356.5t365.5 147.5q142 0 261.5 -67.5t188 -183.5t68.5 -253q0 -136 -68.5 -252t-188 -184.5t-261.5 -68.5q-141 0 -260 68.5t-187.5 184.5t-68.5 252zM295 1270l96 215l488 -219l-91 -199zM317 487q0 -106 79.5 -185t189.5 -79q112 0 191 78.5 t79 185.5q0 105 -79.5 184t-190.5 79q-109 0 -189 -79t-80 -184z" />
<glyph unicode="&#xf3;" horiz-adv-x="1173" d="M70 487q0 209 150.5 356.5t365.5 147.5q142 0 261.5 -67.5t188 -183.5t68.5 -253q0 -136 -68.5 -252t-188 -184.5t-261.5 -68.5q-141 0 -260 68.5t-187.5 184.5t-68.5 252zM295 1266l487 219l97 -215l-494 -203zM317 487q0 -106 79.5 -185t189.5 -79q112 0 191 78.5 t79 185.5q0 105 -79.5 184t-190.5 79q-109 0 -189 -79t-80 -184z" />
<glyph unicode="&#xf4;" horiz-adv-x="1173" d="M70 487q0 209 150.5 356.5t365.5 147.5q142 0 261.5 -67.5t188 -183.5t68.5 -253q0 -136 -68.5 -252t-188 -184.5t-261.5 -68.5q-141 0 -260 68.5t-187.5 184.5t-68.5 252zM201 1247l319 238h135l320 -238l-119 -180l-268 190l-269 -190zM317 487q0 -106 79.5 -185 t189.5 -79q112 0 191 78.5t79 185.5q0 105 -79.5 184t-190.5 79q-109 0 -189 -79t-80 -184z" />
<glyph unicode="&#xf5;" horiz-adv-x="1173" d="M70 487q0 209 150.5 356.5t365.5 147.5q142 0 261.5 -67.5t188 -183.5t68.5 -253q0 -136 -68.5 -252t-188 -184.5t-261.5 -68.5q-141 0 -260 68.5t-187.5 184.5t-68.5 252zM176 1118q0 144 65 225.5t187 81.5q56 0 114.5 -21.5t104 -43t72.5 -21.5q40 0 60 19.5t20 66.5 h200q0 -142 -64 -224.5t-179 -82.5q-60 0 -118.5 22t-103.5 44t-71 22q-86 0 -86 -88h-201zM317 487q0 -106 79.5 -185t189.5 -79q112 0 191 78.5t79 185.5q0 105 -79.5 184t-190.5 79q-109 0 -189 -79t-80 -184z" />
<glyph unicode="&#xf6;" horiz-adv-x="1173" d="M70 487q0 209 150.5 356.5t365.5 147.5q142 0 261.5 -67.5t188 -183.5t68.5 -253q0 -136 -68.5 -252t-188 -184.5t-261.5 -68.5q-141 0 -260 68.5t-187.5 184.5t-68.5 252zM229 1137v266h269v-266h-269zM317 487q0 -106 79.5 -185t189.5 -79q112 0 191 78.5t79 185.5 q0 105 -79.5 184t-190.5 79q-109 0 -189 -79t-80 -184zM680 1137v266h268v-266h-268z" />
<glyph unicode="&#xf7;" d="M123 506v242h1016v-242h-1016zM463 256q0 67 46 112.5t114 45.5q66 0 111.5 -45.5t45.5 -112.5q0 -69 -45.5 -114.5t-111.5 -45.5q-68 0 -114 45.5t-46 114.5zM463 999q0 67 46 112.5t114 45.5q66 0 111.5 -45.5t45.5 -112.5q0 -69 -45 -114t-112 -45q-68 0 -114 45 t-46 114z" />
<glyph unicode="&#xf8;" horiz-adv-x="1216" d="M45 80l129 129q-84 130 -84 278q0 209 150.5 356.5t365.5 147.5q146 0 275 -76l135 136l158 -158l-132 -131q82 -129 82 -275q0 -136 -68.5 -252t-188 -184.5t-261.5 -68.5q-146 0 -270 73l-133 -133zM338 487q0 -49 18 -96l342 342q-49 17 -92 17q-109 0 -188.5 -79 t-79.5 -184zM518 238q54 -15 88 -15q112 0 191.5 78.5t79.5 185.5q0 45 -19 91z" />
<glyph unicode="&#xf9;" horiz-adv-x="1171" d="M127 377v596h252v-565q0 -94 50 -146.5t140 -52.5q102 0 157.5 61.5t55.5 178.5v524h252v-973h-252v113q-88 -138 -288 -138q-167 0 -267 111t-100 291zM289 1270l96 215l487 -219l-90 -199z" />
<glyph unicode="&#xfa;" horiz-adv-x="1171" d="M127 377v596h252v-565q0 -94 50 -146.5t140 -52.5q102 0 157.5 61.5t55.5 178.5v524h252v-973h-252v113q-88 -138 -288 -138q-167 0 -267 111t-100 291zM289 1266l487 219l96 -215l-493 -203z" />
<glyph unicode="&#xfb;" horiz-adv-x="1171" d="M127 377v596h252v-565q0 -94 50 -146.5t140 -52.5q102 0 157.5 61.5t55.5 178.5v524h252v-973h-252v113q-88 -138 -288 -138q-167 0 -267 111t-100 291zM195 1247l319 238h135l320 -238l-119 -180l-268 190l-269 -190z" />
<glyph unicode="&#xfc;" horiz-adv-x="1171" d="M127 377v596h252v-565q0 -94 50 -146.5t140 -52.5q102 0 157.5 61.5t55.5 178.5v524h252v-973h-252v113q-88 -138 -288 -138q-167 0 -267 111t-100 291zM223 1137v266h269v-266h-269zM674 1137v266h268v-266h-268z" />
<glyph unicode="&#xfd;" horiz-adv-x="1120" d="M12 973h293l266 -649l234 649h297l-604 -1424h-262l208 459zM264 1266l488 219l96 -215l-494 -203z" />
<glyph unicode="&#xfe;" horiz-adv-x="1245" d="M137 -451v1833h252v-514q47 67 127.5 95t157.5 28q140 0 256 -70.5t181 -188.5t65 -255q0 -132 -66.5 -245.5t-184 -181.5t-257.5 -68q-91 0 -153.5 25t-125.5 75v-533h-252zM389 477q0 -109 78 -181.5t192 -72.5q111 0 190 78t79 176q0 108 -78.5 190.5t-190.5 82.5 q-114 0 -192 -77t-78 -196z" />
<glyph unicode="&#xff;" horiz-adv-x="1120" d="M12 973h293l266 -649l234 649h297l-604 -1424h-262l208 459zM199 1137v266h268v-266h-268zM649 1137v266h269v-266h-269z" />
<glyph unicode="&#x152;" horiz-adv-x="2111" d="M78 664q0 140 52.5 266.5t143 219t219 146.5t273.5 54q235 0 424 -142v121h815v-250h-553v-284h502v-246h-502v-297h561v-252h-823v123q-187 -141 -424 -141q-188 0 -346 89t-250 246t-92 347zM346 662q0 -181 121 -306t299 -125t299 126t121 307q0 182 -121 309 t-299 127q-179 0 -299.5 -128.5t-120.5 -309.5z" />
<glyph unicode="&#x153;" horiz-adv-x="1916" d="M70 487q0 209 150.5 356.5t365.5 147.5q115 0 216.5 -45.5t174.5 -126.5q67 81 165.5 126.5t219.5 45.5q140 0 253 -68.5t174.5 -182t61.5 -248.5q0 -42 -6 -80h-741q22 -91 93 -146t177 -55q70 0 134.5 26.5t105.5 79.5l172 -137q-66 -93 -175.5 -145.5t-234.5 -52.5 q-120 0 -222.5 46.5t-174.5 129.5q-72 -83 -174 -129.5t-219 -46.5q-141 0 -260 68.5t-187.5 184.5t-68.5 252zM317 487q0 -106 79.5 -185t189.5 -79q112 0 191 78.5t79 185.5q0 105 -79.5 184t-190.5 79q-109 0 -189 -79t-80 -184zM1112 588h485q-11 74 -79 124t-158 50 q-87 0 -153.5 -47.5t-94.5 -126.5z" />
<glyph unicode="&#x178;" horiz-adv-x="1329" d="M20 1329h312l336 -563l333 563h302l-504 -805v-524h-267v526zM279 1477v288h294v-288h-294zM750 1477v288h294v-288h-294z" />
<glyph unicode="&#x2c6;" horiz-adv-x="1228" d="M123 1247l319 238h136l319 -238l-119 -180l-268 190l-268 -190z" />
<glyph unicode="&#x2dc;" horiz-adv-x="1228" d="M123 1118q0 144 65 225.5t187 81.5q56 0 114.5 -21.5t104 -43t72.5 -21.5q40 0 59.5 19t19.5 67h201q0 -142 -64.5 -224.5t-179.5 -82.5q-60 0 -118.5 22t-103 44t-70.5 22q-86 0 -86 -88h-201z" />
<glyph unicode="&#x2000;" horiz-adv-x="965" />
<glyph unicode="&#x2001;" horiz-adv-x="1931" />
<glyph unicode="&#x2002;" horiz-adv-x="965" />
<glyph unicode="&#x2003;" horiz-adv-x="1931" />
<glyph unicode="&#x2004;" horiz-adv-x="643" />
<glyph unicode="&#x2005;" horiz-adv-x="482" />
<glyph unicode="&#x2006;" horiz-adv-x="321" />
<glyph unicode="&#x2007;" horiz-adv-x="321" />
<glyph unicode="&#x2008;" horiz-adv-x="241" />
<glyph unicode="&#x2009;" horiz-adv-x="386" />
<glyph unicode="&#x200a;" horiz-adv-x="107" />
<glyph unicode="&#x2010;" horiz-adv-x="847" d="M115 461v237h618v-237h-618z" />
<glyph unicode="&#x2011;" horiz-adv-x="847" d="M115 461v237h618v-237h-618z" />
<glyph unicode="&#x2012;" horiz-adv-x="847" d="M115 461v237h618v-237h-618z" />
<glyph unicode="&#x2013;" horiz-adv-x="1216" d="M115 461v237h987v-237h-987z" />
<glyph unicode="&#x2014;" horiz-adv-x="1728" d="M115 461v237h1499v-237h-1499z" />
<glyph unicode="&#x2018;" horiz-adv-x="460" d="M68 948l139 426h180l-65 -426h-254z" />
<glyph unicode="&#x2019;" horiz-adv-x="448" d="M86 924l66 426h254l-140 -426h-180z" />
<glyph unicode="&#x201a;" horiz-adv-x="475" d="M66 -156l65 426h254l-139 -426h-180z" />
<glyph unicode="&#x201c;" horiz-adv-x="813" d="M72 924l139 426h180l-65 -426h-254zM420 924l139 426h180l-65 -426h-254z" />
<glyph unicode="&#x201d;" horiz-adv-x="796" d="M86 924l66 426h254l-140 -426h-180zM434 924l66 426h254l-140 -426h-180z" />
<glyph unicode="&#x201e;" horiz-adv-x="823" d="M66 -156l65 426h254l-139 -426h-180zM414 -156l65 426h254l-139 -426h-180z" />
<glyph unicode="&#x2022;" horiz-adv-x="825" d="M162 375v489h502v-489h-502z" />
<glyph unicode="&#x2026;" horiz-adv-x="1415" d="M113 0v281h288v-281h-288zM563 0v281h289v-281h-289zM1014 0v281h289v-281h-289z" />
<glyph unicode="&#x202f;" horiz-adv-x="386" />
<glyph unicode="&#x2039;" horiz-adv-x="704" d="M51 475l301 363h271l-295 -363l295 -362h-275z" />
<glyph unicode="&#x203a;" horiz-adv-x="704" d="M82 113l295 362l-295 363h270l301 -363l-297 -362h-274z" />
<glyph unicode="&#x205f;" horiz-adv-x="482" />
<glyph unicode="&#x20ac;" horiz-adv-x="1290" d="M53 410l62 190h125q-2 20 -2 66v34h-144l62 191h108q56 216 212 337.5t384 121.5q107 0 191.5 -21t171.5 -76l-113 -223q-111 70 -250 70q-113 0 -194 -54t-123 -155h473l-62 -191h-450v-34q0 -46 2 -66h420l-62 -190h-307q45 -87 122 -133t181 -46q139 0 250 70 l113 -223q-87 -54 -171 -75t-192 -21q-219 0 -372.5 113t-215.5 315h-219z" />
<glyph unicode="&#x2122;" horiz-adv-x="1628" d="M59 1159v170h592v-170h-198v-469h-193v469h-201zM752 690l2 639h256l114 -428l115 428h256l2 -639h-176v397h-6l-105 -397h-172l-104 397h-6v-397h-176z" />
<glyph unicode="&#x25fc;" horiz-adv-x="972" d="M0 0v973h973v-973h-973z" />
</font>
</defs>
</svg>
