<?xml version="1.0" standalone="no"?>
<!DOCTYPE svg PUBLIC "-//W3C//DTD SVG 1.1//EN" "http://www.w3.org/Graphics/SVG/1.1/DTD/svg11.dtd" >
<svg xmlns="http://www.w3.org/2000/svg" xmlns:xlink="http://www.w3.org/1999/xlink" version="1.1">
<metadata></metadata>
<defs>
<font id="f37_moonbold_it" horiz-adv-x="1261" >
<font-face units-per-em="2048" ascent="1638" descent="-410" />
<missing-glyph horiz-adv-x="442" />
<glyph unicode="&#xfb01;" horiz-adv-x="1243" d="M203 719l45 254h147l6 37q70 393 494 393q33 0 53 -2l-45 -254q-18 2 -45 2q-86 0 -134.5 -32t-61.5 -107l-7 -37h623l-172 -973h-260l127 719h-363l-127 -719h-260l127 719h-147zM1047 1139l47 262h260l-47 -262h-260z" />
<glyph unicode="&#xfb02;" horiz-adv-x="1241" d="M203 719l45 254h147l6 37q70 393 494 393q33 0 53 -2l-45 -254q-18 2 -45 2q-86 0 -134.5 -32t-61.5 -107l-7 -37h361l71 409h261l-244 -1382h-260l127 719h-361l-127 -719h-260l127 719h-147z" />
<glyph horiz-adv-x="0" />
<glyph horiz-adv-x="682" />
<glyph unicode=" "  horiz-adv-x="442" />
<glyph unicode="&#x09;" horiz-adv-x="442" />
<glyph unicode="&#xa0;" horiz-adv-x="442" />
<glyph unicode="!" horiz-adv-x="548" d="M145 0l48 262h260l-47 -262h-261zM276 449l31 487l68 393h266l-68 -393l-141 -487h-156z" />
<glyph unicode="&#x22;" horiz-adv-x="778" d="M289 924l39 426h254l-113 -426h-180zM637 924l39 426h254l-113 -426h-180z" />
<glyph unicode="#" horiz-adv-x="1136" d="M145 356l39 219h174l76 193h-137l39 219h182l88 225h199l-88 -225h190l88 225h199l-88 -225h123l-39 -219h-168l-76 -193h131l-39 -219h-176l-88 -225h-199l89 225h-191l-88 -225h-199l88 225h-129zM557 575h191l75 193h-190z" />
<glyph unicode="$" horiz-adv-x="1130" d="M102 217l209 156q67 -110 197 -144l65 367q-52 17 -90.5 33.5t-81 45.5t-69.5 64.5t-44.5 89.5t-17.5 121q0 160 120 268.5t315 127.5l38 217h218l-41 -228q221 -46 323 -209l-201 -161q-61 93 -163 131l-58 -322q52 -21 92 -41t83 -51.5t70.5 -67.5t45.5 -88t18 -114 q0 -99 -35 -178.5t-97 -131t-142 -81t-174 -37.5l-39 -215h-217l39 223q-262 38 -363 225zM526 963q0 -34 23.5 -59.5t68.5 -49.5l44 250q-63 -18 -99.5 -54.5t-36.5 -86.5zM723 225q149 36 149 164q0 86 -96 135z" />
<glyph unicode="%" horiz-adv-x="1816" d="M223 899q0 192 119 316t301 124q138 0 224.5 -90t86.5 -229q0 -113 -49 -209t-146.5 -156.5t-223.5 -60.5q-137 0 -224.5 86t-87.5 219zM420 926q0 -68 38.5 -110.5t102.5 -41.5q78 -2 136.5 68.5t58.5 165.5q0 68 -38.5 109.5t-101.5 41.5q-80 0 -138 -69t-58 -164z M485 0l861 1329h219l-860 -1329h-220zM1098 299q0 192 119 316t301 124q138 0 224.5 -90t86.5 -229q0 -113 -49.5 -209t-147 -156.5t-223.5 -60.5q-137 0 -224 86t-87 219zM1294 326q0 -68 39 -110.5t103 -41.5q78 -1 136 69t58 165q0 68 -38 109.5t-101 41.5 q-80 0 -138.5 -69t-58.5 -164z" />
<glyph unicode="&#x26;" horiz-adv-x="1275" d="M143 328q0 135 75 229.5t212 134.5q-141 85 -141 246q0 189 141.5 300.5t380.5 111.5q97 0 180 -9l-45 -247q-78 10 -147 10q-114 0 -178 -46t-64 -128q0 -123 158 -123h213l24 135h252l-24 -135h157l-43 -246h-157l-56 -315h156l-43 -246h-647q-183 0 -293.5 89 t-110.5 239zM422 377q0 -131 168 -131h239l56 315h-217q-117 0 -181.5 -50t-64.5 -134z" />
<glyph unicode="'" horiz-adv-x="430" d="M289 924l39 426h254l-113 -426h-180z" />
<glyph unicode="(" horiz-adv-x="716" d="M158 385q0 148 37 286t111.5 264t195.5 234.5t280 186.5l113 -201q-46 -30 -80 -53.5t-86 -66.5t-90 -84t-80 -102.5t-69 -125t-44.5 -147.5t-17.5 -175q0 -167 59.5 -291t180.5 -235l-183 -194q-327 316 -327 704z" />
<glyph unicode=")" horiz-adv-x="718" d="M6 -119q46 30 80 53.5t86 66.5t90 84t80 102.5t69 125t44.5 147.5t17.5 175q0 167 -59.5 291t-180.5 235l183 195q327 -316 327 -705q0 -199 -64 -376t-206.5 -334t-353.5 -260z" />
<glyph unicode="*" horiz-adv-x="749" d="M242 961l184 69l-158 72l119 155l121 -108l10 178h184l-57 -182l158 108l74 -157l-172 -70l143 -65l-115 -154l-129 108l-8 -182h-184l49 164l-146 -96z" />
<glyph unicode="+" d="M213 506l43 242h387l68 387h241l-67 -387h387l-43 -242h-387l-68 -387h-242l68 387h-387z" />
<glyph unicode="," horiz-adv-x="475" d="M49 -172l123 442h256l-192 -442h-187z" />
<glyph unicode="-" horiz-adv-x="847" d="M197 461l41 237h618l-41 -237h-618z" />
<glyph unicode="." horiz-adv-x="514" d="M113 0l49 281h289l-50 -281h-288z" />
<glyph unicode="/" horiz-adv-x="790" d="M45 0l668 1329h266l-670 -1329h-264z" />
<glyph unicode="0" horiz-adv-x="1204" d="M195 489l63 365q37 221 184.5 358.5t376.5 137.5q222 0 342.5 -142.5t83.5 -353.5l-65 -377q-43 -246 -185.5 -370.5t-378.5 -124.5q-148 0 -254 67t-149 182.5t-18 257.5zM463 502q-22 -122 26.5 -187t155.5 -65q108 0 180 64.5t93 187.5l57 327q22 125 -30 188.5 t-154 63.5q-227 0 -271 -252z" />
<glyph unicode="1" horiz-adv-x="718" d="M260 1065l47 264h486l-236 -1329h-285l189 1065h-201z" />
<glyph unicode="2" horiz-adv-x="1101" d="M90 0l35 193l588 538q43 39 62.5 58t47.5 52.5t39.5 65t11.5 66.5q0 57 -38 90t-111 33q-174 0 -211 -203h-264q36 213 158 335t342 122q185 0 290 -94.5t105 -245.5q0 -42 -9.5 -83t-22 -73.5t-38.5 -70t-45.5 -63t-57 -62.5t-59.5 -57.5t-65 -59.5l-297 -273h508 l-47 -268h-922z" />
<glyph unicode="3" horiz-adv-x="1067" d="M98 262l242 127q31 -162 223 -162q107 0 167.5 51.5t60.5 137.5q0 73 -48.5 115t-138.5 42h-72l-90 168l336 342h-461l43 246h803l-37 -209l-344 -342q131 -29 201 -119.5t70 -226.5q0 -214 -140.5 -332t-373.5 -118q-105 0 -194.5 28.5t-157 93t-89.5 158.5z" />
<glyph unicode="4" horiz-adv-x="1216" d="M94 248l31 170l577 911h289l-520 -827h324l57 329h272l-57 -329h182l-45 -254h-182l-43 -248h-272l43 248h-656z" />
<glyph unicode="5" horiz-adv-x="1079" d="M113 268l247 131q24 -163 228 -163q94 0 156.5 55t62.5 145q0 72 -47 114t-135 42h-385l172 737h755l-45 -254h-504l-53 -229h125q171 0 279 -100.5t108 -274.5q0 -216 -142 -352.5t-370 -136.5q-178 0 -298 71t-154 215z" />
<glyph unicode="6" horiz-adv-x="1140" d="M154 395q0 118 52 224.5t159 230.5l417 479h318l-393 -444q14 2 47 2q182 0 297.5 -112t115.5 -277q0 -228 -159.5 -372t-397.5 -144q-199 0 -327.5 115t-128.5 298zM422 438q0 -91 60.5 -146.5t156.5 -55.5q111 0 184.5 64t73.5 175q0 84 -59 140.5t-152 56.5 q-120 0 -192 -67t-72 -167z" />
<glyph unicode="7" horiz-adv-x="1056" d="M152 0l727 1063h-631l45 266h942l-39 -231l-729 -1098h-315z" />
<glyph unicode="8" horiz-adv-x="1179" d="M156 360q0 288 262 402q-72 79 -72 188q0 175 127.5 287.5t335.5 112.5q177 0 278 -85.5t101 -215.5q0 -180 -166 -287q72 -43 112 -118.5t40 -172.5q0 -101 -37 -189.5t-105 -155.5t-172.5 -105.5t-230.5 -38.5q-206 0 -339.5 110t-133.5 268zM428 412 q0 -79 62.5 -127.5t160.5 -48.5q113 0 183.5 58t70.5 161q0 77 -59.5 128.5t-155.5 51.5q-124 0 -193 -60.5t-69 -162.5zM606 967q0 -53 40 -84t104 -31q75 0 123.5 38.5t48.5 100.5q0 55 -39.5 88t-104.5 33q-73 0 -122.5 -39t-49.5 -106z" />
<glyph unicode="9" horiz-adv-x="1140" d="M207 831q0 151 74 270t200.5 183t282.5 64q199 0 328 -115.5t129 -298.5q0 -118 -52 -224.5t-159 -230.5l-418 -479h-318l394 444q-14 -2 -47 -2q-182 0 -298 112t-116 277zM477 854q0 -84 59 -140.5t152 -56.5q120 0 192 67t72 167q0 92 -60.5 147.5t-156.5 55.5 q-111 0 -184.5 -64.5t-73.5 -175.5z" />
<glyph unicode=":" horiz-adv-x="518" d="M115 0l49 281h289l-50 -281h-288zM236 682l49 281h288l-49 -281h-288z" />
<glyph unicode=";" horiz-adv-x="546" d="M80 -172l123 442h256l-193 -442h-186zM256 682l49 281h289l-49 -281h-289z" />
<glyph unicode="&#x3c;" d="M365 649l661 578l158 -185l-479 -407l321 -391l-205 -172z" />
<glyph unicode="=" d="M178 311l43 242h1016l-43 -242h-1016zM250 721l43 242h1016l-43 -242h-1016z" />
<glyph unicode="&#x3e;" horiz-adv-x="1269" d="M315 256l480 408l-322 391l205 172l457 -578l-662 -577z" />
<glyph unicode="?" horiz-adv-x="1009" d="M213 905q34 210 163.5 327.5t338.5 117.5q182 0 285.5 -88.5t103.5 -231.5q0 -68 -20 -125t-53 -97t-73 -74.5t-81.5 -62.5t-77 -54.5t-61.5 -58.5t-33 -66l-9 -43h-247l8 51q11 68 54.5 127.5t97.5 101.5t107 81.5t88.5 85.5t35.5 95q0 57 -40.5 87t-109.5 30 q-90 0 -146.5 -53.5t-74.5 -149.5h-256zM362 0l48 262h260l-47 -262h-261z" />
<glyph unicode="@" horiz-adv-x="2004" d="M129 236q0 217 72.5 404.5t205 325t332 216t441.5 78.5q229 0 417 -91t298 -259t110 -380q0 -154 -38.5 -279t-106.5 -207.5t-161.5 -126.5t-203.5 -44q-229 0 -305 166q-110 -102 -252 -102q-151 0 -252.5 112.5t-101.5 276.5q0 127 61 233t165 166.5t226 60.5 q162 0 258 -124l19 110h233l-96 -545q-12 -68 15.5 -96.5t74.5 -28.5q91 0 153 109t62 307q0 230 -164.5 368t-439.5 138q-352 0 -562 -211.5t-210 -562.5q0 -239 148.5 -388t400.5 -149q107 0 181.5 12t168.5 48l72 -222q-109 -46 -204.5 -59.5t-234.5 -13.5 q-173 0 -319.5 58.5t-247.5 160t-158 241t-57 298.5zM815 344q0 -78 56.5 -132t136.5 -54q90 0 156.5 65t66.5 158q0 76 -54.5 130t-129.5 54q-97 0 -164.5 -64.5t-67.5 -156.5z" />
<glyph unicode="A" horiz-adv-x="1310" d="M25 0l700 1329h326l235 -1329h-258l-43 240h-545l-123 -240h-292zM567 485h375l-94 543z" />
<glyph unicode="B" horiz-adv-x="1216" d="M158 0l233 1329h498q169 0 271 -93t102 -245q0 -94 -46.5 -176t-136.5 -127q133 -89 133 -254q0 -188 -136.5 -311t-352.5 -123h-565zM463 246h303q78 0 131 48.5t53 127.5q0 59 -35.5 98t-93.5 39h-303zM559 793h262q73 0 122.5 47.5t49.5 120.5q0 52 -33.5 88t-87.5 36 h-262z" />
<glyph unicode="C" horiz-adv-x="1386" d="M193 586q0 153 61 294t163.5 244t243.5 164.5t295 61.5q178 0 319.5 -81t217.5 -220l-240 -134q-46 86 -128.5 135.5t-192.5 49.5q-126 0 -234 -67t-170.5 -180.5t-62.5 -244.5q0 -161 94.5 -269t253.5 -108q223 0 375 177l205 -144q-234 -282 -605 -282q-261 0 -428 170 t-167 434z" />
<glyph unicode="D" horiz-adv-x="1421" d="M158 0l233 1329h457q269 0 441.5 -165t172.5 -421q0 -121 -41 -235t-115 -205t-171 -159.5t-214.5 -106t-240.5 -37.5h-522zM467 250h238q126 0 237.5 61t179.5 169t68 237q0 154 -100.5 258t-266.5 104h-211z" />
<glyph unicode="E" horiz-adv-x="1079" d="M158 0l233 1329h815l-43 -250h-553l-51 -284h502l-43 -246h-502l-51 -297h561l-45 -252h-823z" />
<glyph unicode="F" horiz-adv-x="1026" d="M158 0l233 1329h799l-43 -250h-533l-55 -313h488l-46 -252h-487l-90 -514h-266z" />
<glyph unicode="G" horiz-adv-x="1488" d="M193 586q0 152 62.5 293.5t166.5 244.5t247 164.5t298 61.5q148 0 270 -56t207 -159l-213 -179q-46 67 -120 105.5t-167 38.5q-129 0 -239.5 -67t-175 -180.5t-64.5 -244.5q0 -161 103 -269t272 -108q146 0 252 77t153 210h-362l39 219h626q0 -212 -93.5 -384.5 t-261.5 -271.5t-376 -99q-180 0 -322.5 77t-222 215t-79.5 312z" />
<glyph unicode="H" horiz-adv-x="1363" d="M158 0l233 1329h266l-92 -530h516l93 530h266l-234 -1329h-266l96 549h-516l-96 -549h-266z" />
<glyph unicode="I" horiz-adv-x="581" d="M158 0l233 1329h266l-233 -1329h-266z" />
<glyph unicode="J" horiz-adv-x="1054" d="M39 162l188 196q78 -127 242 -127q212 0 264 281l146 817h266l-150 -842q-26 -145 -75 -245t-121 -156t-155.5 -80t-190.5 -24q-156 0 -257.5 52t-156.5 128z" />
<glyph unicode="K" horiz-adv-x="1245" d="M158 0l233 1329h262l-100 -569l561 569h330l-602 -598l413 -731h-299l-307 539l-162 -158l-67 -381h-262z" />
<glyph unicode="L" horiz-adv-x="1019" d="M158 0l233 1329h291l-188 -1073h534l-45 -256h-825z" />
<glyph unicode="M" horiz-adv-x="1785" d="M158 0l233 1329h397l152 -1014l506 1014h416l-234 -1329h-266l172 975l-496 -975h-293l-151 958l-170 -958h-266z" />
<glyph unicode="N" horiz-adv-x="1501" d="M158 0l233 1329h234l532 -887l156 887h264l-234 -1329h-233l-530 889l-158 -889h-264z" />
<glyph unicode="O" horiz-adv-x="1546" d="M193 586q0 152 63 293.5t168.5 244.5t250 164.5t300.5 61.5q177 0 317 -77.5t218.5 -216t78.5 -313.5q0 -155 -64 -296.5t-170.5 -243t-250 -161.5t-297.5 -60q-266 0 -440 170.5t-174 433.5zM465 608q0 -160 101 -268.5t265 -108.5q126 0 237.5 63.5t180 176.5t68.5 246 q0 162 -100.5 272.5t-266.5 110.5q-97 0 -187 -40t-155 -106t-104 -157t-39 -189z" />
<glyph unicode="P" horiz-adv-x="1146" d="M158 0l233 1329h459q186 0 298 -109.5t112 -277.5q0 -233 -152.5 -369.5t-392.5 -136.5h-213l-78 -436h-266zM545 682h213q104 0 168.5 64.5t64.5 164.5q0 80 -44.5 126t-123.5 46h-209z" />
<glyph unicode="Q" horiz-adv-x="1531" d="M193 586q0 152 63 293.5t168.5 244.5t250 164.5t300.5 61.5q177 0 317 -77.5t218.5 -216t78.5 -313.5q0 -154 -62.5 -293.5t-172.5 -246.5l100 -129l-215 -166l-111 143q-153 -69 -321 -69q-266 0 -440 170.5t-174 433.5zM465 608q0 -160 101 -268.5t265 -108.5 q61 0 140 21l-178 229l215 166l190 -246q119 135 119 316q0 162 -100.5 272.5t-266.5 110.5q-97 0 -187 -40t-155 -106t-104 -157t-39 -189z" />
<glyph unicode="R" horiz-adv-x="1187" d="M158 0l233 1329h436q204 0 312 -110t108 -273q0 -153 -83 -264t-222 -160l195 -522h-291l-178 489h-172l-86 -489h-252zM532 694h209q106 0 175 66t69 164q0 77 -45 125.5t-135 48.5h-201z" />
<glyph unicode="S" horiz-adv-x="1150" d="M90 217l215 172q104 -158 326 -158q112 0 176.5 42t64.5 116q0 47 -26 81.5t-68.5 53.5t-97 38t-111.5 34.5t-111.5 44t-97 65t-68.5 99t-26 145.5q0 176 146 288t374 112q155 0 283 -58.5t193 -165.5l-209 -176q-39 67 -113.5 108.5t-161.5 41.5q-107 0 -173 -37.5 t-66 -99.5q0 -39 33.5 -69.5t87.5 -52.5t119 -44.5t130 -53.5t119 -72t87.5 -107.5t33.5 -151.5q0 -108 -42.5 -192t-116 -135t-167 -77t-202.5 -26q-399 0 -531 235z" />
<glyph unicode="T" horiz-adv-x="1159" d="M225 1081l43 248h1090l-43 -248h-412l-190 -1081h-267l191 1081h-412z" />
<glyph unicode="U" horiz-adv-x="1433" d="M238 537l139 792h266l-137 -780q-8 -46 -8 -85q0 -98 50 -154q70 -79 214 -79q302 0 358 318l137 780h267l-140 -792q-96 -555 -645 -555q-130 0 -233 36.5t-171.5 105t-94.5 174.5q-14 55 -14 118q0 57 12 121z" />
<glyph unicode="V" horiz-adv-x="1361" d="M254 1329h274l195 -1061l569 1061h283l-733 -1329h-322z" />
<glyph unicode="W" horiz-adv-x="2048" d="M254 1329h270l105 -1020l479 1020h293l117 -1020l467 1020h276l-631 -1329h-321l-119 948l-451 -948h-321z" />
<glyph unicode="X" horiz-adv-x="1251" d="M10 0l570 682l-324 647h303l213 -457l373 457h317l-557 -657l336 -672h-301l-217 465l-391 -465h-322z" />
<glyph unicode="Y" horiz-adv-x="1329" d="M254 1329h301l240 -563l430 563h311l-645 -805l-92 -524h-267l93 526z" />
<glyph unicode="Z" horiz-adv-x="1169" d="M82 0l37 207l792 878h-637l43 244h1002l-35 -207l-792 -878h636l-43 -244h-1003z" />
<glyph unicode="[" horiz-adv-x="788" d="M100 -307l289 1636h580l-41 -225h-318l-209 -1186h318l-39 -225h-580z" />
<glyph unicode="\" horiz-adv-x="763" d="M279 1329h239l201 -1329h-238z" />
<glyph unicode="]" horiz-adv-x="788" d="M2 -307l41 225h317l209 1186h-317l39 225h579l-288 -1636h-580z" />
<glyph unicode="^" d="M238 598l479 731h295l221 -731h-250l-145 520l-326 -520h-274z" />
<glyph unicode="_" horiz-adv-x="1126" d="M39 -293l41 238h946l-41 -238h-946z" />
<glyph unicode="`" horiz-adv-x="1228" d="M346 1270l119 211l448 -219l-108 -195z" />
<glyph unicode="a" horiz-adv-x="1245" d="M147 442q0 113 43.5 215t116 175t172 116t207.5 43q98 0 177 -40t132 -109l23 131h260l-172 -973h-260l16 98q-129 -116 -291 -116q-181 0 -302.5 133t-121.5 327zM399 463q0 -101 71 -170.5t173 -69.5q115 0 200 84t85 203q0 100 -69 170t-165 70q-123 0 -209 -83.5 t-86 -203.5z" />
<glyph unicode="b" horiz-adv-x="1245" d="M137 0l244 1382h260l-90 -508q130 117 293 117q181 0 302.5 -133.5t121.5 -327.5q0 -150 -73.5 -276.5t-197 -199t-268.5 -72.5q-98 0 -177 40t-132 109l-23 -131h-260zM487 463q0 -100 69 -170t165 -70q123 0 209 83.5t86 203.5q0 101 -71 170.5t-173 69.5 q-115 0 -200 -84t-85 -203z" />
<glyph unicode="c" horiz-adv-x="1038" d="M147 442q0 151 75 277.5t205 199t286 72.5q133 0 243.5 -66t171.5 -177l-227 -121q-31 56 -87.5 89.5t-123.5 33.5q-123 0 -207 -83.5t-84 -203.5q0 -101 69.5 -170.5t170.5 -69.5q73 0 136.5 32.5t103.5 88.5l200 -133q-78 -106 -200 -167.5t-263 -61.5 q-197 0 -333 133.5t-136 326.5z" />
<glyph unicode="d" horiz-adv-x="1243" d="M147 442q0 113 43.5 215t116 175t172 116t207.5 43q192 0 307 -149l97 540h260l-244 -1382h-260l16 98q-129 -116 -291 -116q-181 0 -302.5 133t-121.5 327zM399 463q0 -101 71 -170.5t173 -69.5q115 0 200 84t85 203q0 100 -69 170t-165 70q-123 0 -209 -83.5 t-86 -203.5z" />
<glyph unicode="e" horiz-adv-x="1130" d="M150 442q0 151 73.5 277.5t201 199t280.5 72.5q196 0 326 -126.5t130 -317.5q0 -63 -20 -133h-735q15 -88 83 -143.5t170 -55.5q103 0 211 92l177 -157q-102 -93 -201 -130.5t-228 -37.5q-199 0 -333.5 133t-134.5 327zM426 590h475q-22 75 -81.5 121.5t-137.5 46.5 q-89 0 -156.5 -46t-99.5 -122z" />
<glyph unicode="f" horiz-adv-x="747" d="M203 719l45 254h147l6 37q70 393 494 393q33 0 53 -2l-45 -254q-18 2 -45 2q-86 0 -134.5 -32t-61.5 -107l-7 -37h217l-45 -254h-217l-127 -719h-260l127 719h-147z" />
<glyph unicode="g" horiz-adv-x="1241" d="M76 -348l131 217q136 -102 313 -102q130 0 219 68t113 196l12 67q-129 -116 -293 -116q-181 0 -302.5 133t-121.5 327q0 113 43.5 215t116 175t172 116t207.5 43q98 0 177 -40t132 -109l23 131h260l-164 -930q-46 -261 -196.5 -387.5t-417.5 -126.5q-123 0 -237.5 32 t-186.5 91zM399 463q0 -101 71 -170.5t173 -69.5q115 0 200 84t85 203q0 100 -69 170t-165 70q-123 0 -209 -83.5t-86 -203.5z" />
<glyph unicode="h" horiz-adv-x="1177" d="M137 0l244 1382h254l-92 -524q104 133 282 133q185 0 273 -111q62 -78 62 -205q0 -53 -11 -116l-98 -559h-260l94 532q6 34 6 63q-1 61 -27 99q-40 56 -129 56q-88 0 -156.5 -58t-86.5 -162l-95 -530h-260z" />
<glyph unicode="i" horiz-adv-x="534" d="M137 0l172 973h260l-172 -973h-260zM338 1139l47 262h260l-47 -262h-260z" />
<glyph unicode="j" horiz-adv-x="534" d="M-127 -469l45 254q20 -2 39 -2q140 0 172 166l180 1024h260l-180 -1024q-21 -120 -57.5 -201.5t-92 -129.5t-125.5 -68.5t-165 -20.5q-53 0 -76 2zM338 1139l47 262h260l-47 -262h-260z" />
<glyph unicode="k" horiz-adv-x="1097" d="M137 0l244 1382h260l-133 -757l403 348h334l-471 -412l340 -561h-293l-243 391l-132 -117l-49 -274h-260z" />
<glyph unicode="l" horiz-adv-x="534" d="M137 0l244 1382h260l-244 -1382h-260z" />
<glyph unicode="m" horiz-adv-x="1755" d="M137 0l172 973h254l-20 -115q113 133 282 133q205 0 275 -166q75 97 159 131.5t183 34.5q120 0 196 -59q74 -58 98 -156q12 -49 13 -105q0 -55 -12 -118l-99 -553h-260l95 532q7 37 7 67q0 57 -23 94q-35 57 -122 57q-74 0 -139 -62.5t-82 -148.5l-96 -539h-260l94 532 q7 37 7 68q-1 56 -23 93q-34 57 -121 57q-76 0 -142 -66t-81 -154l-95 -530h-260z" />
<glyph unicode="n" horiz-adv-x="1177" d="M137 0l172 973h254l-20 -115q104 133 282 133q185 0 273 -111q62 -78 62 -205q0 -53 -11 -116l-98 -559h-260l94 532q6 34 6 63q-1 61 -27 99q-40 56 -129 56q-88 0 -156.5 -58t-86.5 -162l-95 -530h-260z" />
<glyph unicode="o" horiz-adv-x="1173" d="M156 442q0 113 44.5 215t120.5 175t181.5 116t222.5 43q197 0 335 -134t138 -327q0 -151 -75.5 -277t-206.5 -198.5t-287 -72.5q-197 0 -335 133.5t-138 326.5zM408 463q0 -101 70.5 -170.5t172.5 -69.5q123 0 209 83t86 202q0 102 -71 172t-173 70q-123 0 -208.5 -83.5 t-85.5 -203.5z" />
<glyph unicode="p" horiz-adv-x="1245" d="M57 -451l252 1424h260l-16 -99q130 117 291 117q181 0 302.5 -133.5t121.5 -327.5q0 -150 -73.5 -276.5t-197 -199t-268.5 -72.5q-98 0 -177 40t-132 109l-103 -582h-260zM487 463q0 -100 69 -170t165 -70q123 0 209 83.5t86 203.5q0 101 -71 170.5t-173 69.5 q-115 0 -200 -84t-85 -203z" />
<glyph unicode="q" horiz-adv-x="1245" d="M147 442q0 113 43.5 215t116 175t172 116t207.5 43q98 0 177 -40.5t132 -110.5l23 133h260l-250 -1424h-260l96 549q-129 -116 -293 -116q-181 0 -302.5 133t-121.5 327zM399 463q0 -101 71 -170.5t173 -69.5q115 0 200 84t85 203q0 100 -69 170t-165 70 q-123 0 -209 -83.5t-86 -203.5z" />
<glyph unicode="r" horiz-adv-x="757" d="M137 0l172 973h264l-30 -172q90 190 344 190l-51 -295q-16 2 -43 2q-21 0 -44.5 -3.5t-57.5 -12.5t-65.5 -28t-61.5 -46t-52.5 -71.5t-32.5 -100.5l-78 -436h-264z" />
<glyph unicode="s" horiz-adv-x="952" d="M88 211l244 117q23 -61 74 -94t122 -33q69 0 106.5 21t37.5 59q0 29 -25.5 50t-66 35t-89.5 28.5t-98.5 36t-90 51.5t-66 82t-25.5 120q0 137 113.5 223t296.5 86q133 0 234 -55.5t146 -149.5l-241 -116q-36 102 -152 102q-58 0 -93.5 -21t-35.5 -57q0 -28 25.5 -49.5 t66 -37t90 -31.5t98.5 -39t89.5 -52.5t66 -79t25.5 -112.5q0 -150 -111.5 -231.5t-316.5 -81.5q-330 0 -424 229z" />
<glyph unicode="t" horiz-adv-x="753" d="M178 719l45 254h178l43 248h261l-43 -248h231l-45 -254h-232l-127 -719h-260l127 719h-178z" />
<glyph unicode="u" horiz-adv-x="1171" d="M193 414l98 559h260l-94 -533q-6 -34 -6 -64q0 -60 26 -97q39 -56 129 -56q88 0 157 57.5t87 161.5l94 531h260l-172 -973h-254l21 115q-104 -133 -283 -133q-184 0 -272 111q-61 78 -62 205q0 54 11 116z" />
<glyph unicode="v" horiz-adv-x="1087" d="M195 973h262l131 -662l366 662h283l-561 -973h-264z" />
<glyph unicode="w" horiz-adv-x="1683" d="M197 973h274l84 -639l334 639h229l111 -639l311 639h293l-522 -973h-248l-111 621l-319 -621h-262z" />
<glyph unicode="x" horiz-adv-x="1024" d="M12 0l443 498l-254 475h284l148 -277l241 277h293l-422 -475l267 -498h-277l-157 297l-263 -297h-303z" />
<glyph unicode="y" horiz-adv-x="1120" d="M145 -451l289 459l-250 965h283l151 -649l349 649h307l-856 -1424h-273z" />
<glyph unicode="z" horiz-adv-x="958" d="M90 0l41 238l535 507h-445l41 228h780l-41 -230l-532 -516h442l-41 -227h-780z" />
<glyph unicode="{" horiz-adv-x="798" d="M127 397l41 228q98 6 148 54.5t71 164.5l39 217q45 268 307 268h242l-39 -225h-131q-57 0 -89 -33t-44 -102l-29 -160q-23 -127 -85 -197t-173 -100q98 -31 137 -107t17 -192l-29 -160q-12 -69 9 -102t83 -33h125l-41 -225h-221q-126 0 -190.5 78t-43.5 190l39 217 q20 115 -12.5 164.5t-130.5 54.5z" />
<glyph unicode="|" horiz-adv-x="569" d="M121 -186l266 1515h262l-266 -1515h-262z" />
<glyph unicode="}" horiz-adv-x="796" d="M4 -307l39 225h131q57 0 89 33t44 102l29 160q23 127 85 197t173 100q-98 31 -137 107t-17 192l29 160q12 69 -9 102t-83 33h-125l41 225h221q126 0 190.5 -78t43.5 -190l-39 -217q-20 -115 12.5 -164.5t130.5 -54.5l-41 -228q-98 -6 -148 -54.5t-71 -164.5l-39 -217 q-45 -268 -307 -268h-242z" />
<glyph unicode="~" d="M205 504q26 145 108 226t219 81q85 0 164 -19.5t145 -39t120 -19.5q73 0 81 78h252q-26 -145 -108 -226t-219 -81q-80 0 -161.5 19.5t-147 39t-105.5 19.5q-82 0 -96 -78h-252z" />
<glyph unicode="&#xa1;" horiz-adv-x="524" d="M66 -356l69 393l141 487h156l-31 -487l-69 -393h-266zM258 711l45 262h260l-45 -262h-260z" />
<glyph unicode="&#xa2;" horiz-adv-x="1050" d="M193 625q0 192 125 334t317 171l35 199h229l-39 -215q79 -26 143.5 -79.5t104.5 -125.5l-225 -121q-29 49 -78 79t-107 30q-108 0 -182 -73.5t-74 -178.5q0 -90 60.5 -150.5t148.5 -60.5q65 0 120.5 28.5t92.5 78.5l199 -133q-64 -86 -159 -141t-206 -68l-34 -199h-230 l39 221q-125 46 -202.5 156t-77.5 248z" />
<glyph unicode="&#xa3;" horiz-adv-x="1128" d="M94 0l39 219q55 43 78 62.5t61.5 56t61 70.5t37.5 73h-183l41 232h146q-2 8 -12.5 40t-14.5 49t-9 49.5t-5 66.5q0 188 131.5 310t343.5 122q92 0 166 -22t123 -62t80 -95t36.5 -120.5t-6.5 -139.5h-264q13 75 -25 130t-124 55q-87 0 -142 -46t-55 -141q0 -17 2 -36 t4.5 -32.5t8.5 -34.5t9 -30.5t11 -32.5t10 -30h367l-41 -232h-336q-50 -117 -182 -213h632l-47 -268h-942z" />
<glyph unicode="&#xa4;" horiz-adv-x="1280" d="M160 315l180 158q-45 82 -45 180q0 159 102 289l-123 152l177 151l135 -164q103 47 225 47q125 0 225 -59l187 158l139 -162l-172 -150q49 -87 49 -186q0 -167 -111 -297l119 -145l-176 -152l-133 162q-98 -43 -215 -43q-125 0 -231 61l-193 -161zM537 672 q0 -84 59.5 -141.5t146.5 -57.5q107 0 180.5 69.5t73.5 168.5q0 83 -60 140.5t-146 57.5q-107 0 -180.5 -68.5t-73.5 -168.5z" />
<glyph unicode="&#xa5;" horiz-adv-x="1392" d="M182 287l33 190h434l8 49l-51 113h-362l35 190h239l-231 500h301l239 -563l430 563h312l-402 -500h240l-35 -190h-356l-92 -115l-9 -47h428l-32 -190h-428l-52 -287h-266l51 287h-434z" />
<glyph unicode="&#xa6;" horiz-adv-x="569" d="M121 -186l102 583h262l-102 -583h-262zM285 745l102 584h262l-102 -584h-262z" />
<glyph unicode="&#xa7;" horiz-adv-x="1062" d="M86 -59l186 147q81 -123 250 -123q94 0 145.5 26t51.5 75q0 38 -29.5 68t-77 50.5t-104.5 41t-114.5 47t-105 60t-77 88t-29.5 124.5q0 90 52.5 158t150.5 108q-92 79 -92 209q0 145 130 237.5t335 92.5q132 0 245.5 -50.5t167.5 -134.5l-184 -147q-86 123 -250 123 q-196 0 -196 -117q0 -34 29.5 -60.5t76.5 -46t104 -38.5t114 -45t104 -60t76.5 -88.5t29.5 -124.5q0 -186 -207 -270q99 -82 99 -207q0 -149 -128 -238.5t-333 -89.5q-136 0 -253.5 51t-166.5 134zM432 567q0 -22 7.5 -40.5t24.5 -34t33 -27t46 -24.5t50.5 -21t58 -21.5 t57.5 -21.5q56 22 86 61.5t30 91.5q0 24 -7.5 44.5t-24.5 37t-33.5 28.5t-46.5 25t-50 20.5t-58 21t-58 20.5q-115 -48 -115 -160z" />
<glyph unicode="&#xa8;" horiz-adv-x="1228" d="M362 1137l48 266h268l-47 -266h-269zM813 1137l47 266h268l-47 -266h-268z" />
<glyph unicode="&#xa9;" horiz-adv-x="1546" d="M193 586q0 152 63 293.5t168.5 244.5t250 164.5t300.5 61.5q177 0 317 -77.5t218.5 -216t78.5 -313.5q0 -155 -64 -296.5t-170.5 -243t-250 -161.5t-297.5 -60q-266 0 -440 170.5t-174 433.5zM375 596q0 -192 123 -321.5t321 -129.5q152 0 287 76t218 211t83 295 q0 126 -53 229.5t-155.5 166.5t-235.5 63q-157 0 -292.5 -80.5t-215.5 -216.5t-80 -293zM508 633q0 174 123 294t303 120q102 0 186 -50.5t129 -134.5l-170 -88q-24 40 -67.5 65t-93.5 25q-92 0 -157 -63t-65 -154q0 -78 52.5 -130t130.5 -52q56 0 104.5 24t79.5 66l149 -98 q-59 -81 -151.5 -127.5t-198.5 -46.5q-149 0 -251.5 101t-102.5 249z" />
<glyph unicode="&#xaa;" horiz-adv-x="919" d="M244 967q0 155 106 264.5t268 109.5q123 0 195 -88l14 76h203l-115 -651h-206l12 65q-87 -77 -201 -77q-118 0 -197 85.5t-79 215.5zM459 985q0 -52 35.5 -85.5t91.5 -33.5q64 0 107.5 45t43.5 111q0 51 -35 85t-90 34q-66 0 -109.5 -45t-43.5 -111z" />
<glyph unicode="&#xab;" horiz-adv-x="1148" d="M135 475l365 363h276l-368 -373l223 -352h-262zM573 475l365 363h276l-368 -373l223 -352h-262z" />
<glyph unicode="&#xac;" d="M205 506l43 242h1016l-97 -543h-266l53 301h-749z" />
<glyph unicode="&#xad;" horiz-adv-x="847" d="M197 461l41 237h618l-41 -237h-618z" />
<glyph unicode="&#xae;" horiz-adv-x="1546" d="M193 586q0 152 63 293.5t168.5 244.5t250 164.5t300.5 61.5q177 0 317 -77.5t218.5 -216t78.5 -313.5q0 -155 -64 -296.5t-170.5 -243t-250 -161.5t-297.5 -60q-266 0 -440 170.5t-174 433.5zM375 596q0 -192 123 -321.5t321 -129.5q152 0 287 76t218 211t83 295 q0 126 -53 229.5t-155.5 166.5t-235.5 63q-157 0 -292.5 -80.5t-215.5 -216.5t-80 -293zM586 322l127 722h272q112 0 179 -56.5t67 -166.5q0 -75 -48 -136.5t-128 -90.5l108 -272h-205l-86 251h-55l-45 -251h-186zM842 719h96q48 0 78.5 25.5t30.5 66.5q0 35 -21 54.5 t-57 19.5h-97z" />
<glyph unicode="&#xaf;" horiz-adv-x="1228" d="M328 1165l41 230h692l-41 -230h-692z" />
<glyph unicode="&#xb0;" horiz-adv-x="774" d="M250 1008q0 139 100.5 235t245.5 96q120 0 204.5 -80.5t84.5 -197.5q0 -138 -100.5 -234t-245.5 -96q-120 0 -204.5 80t-84.5 197zM442 1024q0 -46 33 -77.5t82 -31.5q56 0 95.5 37.5t39.5 91.5q0 46 -32.5 78.5t-79.5 32.5q-57 0 -97.5 -38.5t-40.5 -92.5z" />
<glyph unicode="&#xb1;" d="M133 57l43 242h1016l-43 -242h-1016zM244 688l43 242h387l53 305h242l-54 -305h388l-43 -242h-388l-53 -305h-241l53 305h-387z" />
<glyph unicode="&#xb2;" horiz-adv-x="823" d="M209 549l31 170l295 213q67 49 94.5 77t27.5 60q0 53 -57 53q-69 0 -82 -78h-229q25 145 112.5 221t227.5 76q131 0 198.5 -61t67.5 -168q0 -50 -17 -93.5t-52 -82t-65 -64t-79 -61.5l-82 -59h250l-35 -203h-606z" />
<glyph unicode="&#xb3;" horiz-adv-x="765" d="M205 770l217 72q11 -92 98 -92q37 0 59.5 17.5t22.5 49.5q0 31 -23 48.5t-61 17.5h-14l-60 112l152 131h-283l35 203h537l-35 -203l-148 -139q121 -45 121 -176q0 -127 -90 -200.5t-225 -73.5q-140 0 -220.5 64t-82.5 169z" />
<glyph unicode="&#xb4;" horiz-adv-x="1228" d="M328 1270l526 219l76 -219l-529 -203z" />
<glyph unicode="&#xb5;" horiz-adv-x="1171" d="M90 -262l217 1235h252l-92 -524q-21 -116 24.5 -178t157.5 -62q180 0 215 205l99 559h251l-102 -582q-73 -416 -426 -416q-217 0 -278 138l-66 -375h-252z" />
<glyph unicode="&#xb6;" horiz-adv-x="1343" d="M205 842q0 208 136.5 347.5t356.5 139.5h787l-37 -213h-115l-229 -1302h-213l229 1302h-180l-229 -1302h-234l119 682h-45q-161 0 -253.5 94.5t-92.5 251.5z" />
<glyph unicode="&#xb7;" horiz-adv-x="518" d="M190 426l50 281h288l-49 -281h-289z" />
<glyph unicode="&#xb8;" horiz-adv-x="1228" d="M47 -434l129 127q13 -23 45 -38t64 -15q43 0 66.5 16t23.5 45q0 55 -74 55h-162l142 269h163l-63 -121h20q72 0 122 -50t50 -135q0 -105 -79.5 -171t-217.5 -66q-151 0 -229 84z" />
<glyph unicode="&#xb9;" horiz-adv-x="622" d="M246 1104l39 225h446l-137 -780h-262l98 555h-184z" />
<glyph unicode="&#xba;" horiz-adv-x="841" d="M244 967q0 152 113 263t270 111q142 0 233.5 -86t91.5 -217q0 -153 -111.5 -262.5t-269.5 -109.5q-142 0 -234.5 85t-92.5 216zM461 985q0 -50 35 -83.5t90 -33.5q63 0 106 44.5t43 109.5q0 50 -34.5 83.5t-88.5 33.5q-64 0 -107.5 -44.5t-43.5 -109.5z" />
<glyph unicode="&#xbb;" horiz-adv-x="1148" d="M102 113l369 372l-223 353h262l233 -363l-364 -362h-277zM541 113l368 372l-223 353h262l234 -363l-365 -362h-276z" />
<glyph unicode="&#xbc;" horiz-adv-x="1697" d="M246 1104l39 225h446l-137 -780h-262l98 555h-184zM367 0l860 1329h219l-860 -1329h-219zM1067 145l37 205l223 430h254l-227 -430h135l31 168h233l-31 -168h80l-37 -205h-77l-27 -145h-234l27 145h-387z" />
<glyph unicode="&#xbd;" horiz-adv-x="1689" d="M246 1104l39 225h446l-137 -780h-262l98 555h-184zM369 0l860 1329h219l-860 -1329h-219zM1108 0l31 170l295 213q67 49 94.5 77t27.5 60q0 53 -57 53q-69 0 -82 -77h-229q25 145 112.5 221t227.5 76q130 0 198 -61.5t68 -168.5q0 -50 -17 -93.5t-52 -82t-65 -64 t-79 -61.5l-82 -59h250l-35 -203h-606z" />
<glyph unicode="&#xbe;" horiz-adv-x="1818" d="M193 770l217 72q11 -92 98 -92q37 0 59.5 17.5t22.5 49.5q0 31 -23 48.5t-61 17.5h-14l-60 112l152 131h-283l35 203h536l-34 -203l-148 -139q121 -45 121 -176q0 -127 -90 -200.5t-225 -73.5q-140 0 -220.5 64t-82.5 169zM489 0l861 1329h219l-860 -1329h-220zM1190 145 l37 205l223 430h254l-227 -430h135l30 168h234l-31 -168h80l-37 -205h-78l-26 -145h-234l27 145h-387z" />
<glyph unicode="&#xbf;" horiz-adv-x="987" d="M61 -57q0 78 27.5 143t68.5 106t91 80t94 67t77.5 65.5t41.5 76.5l8 43h248l-8 -51q-11 -68 -54.5 -127.5t-97.5 -101.5t-107 -81.5t-88.5 -85.5t-35.5 -95q0 -57 40 -87t109 -30q90 0 146.5 53.5t74.5 149.5h256q-34 -210 -163 -327.5t-338 -117.5q-182 0 -286 88.5 t-104 231.5zM496 711l47 262h260l-47 -262h-260z" />
<glyph unicode="&#xc0;" horiz-adv-x="1310" d="M25 0l700 1329h326l235 -1329h-258l-43 240h-545l-123 -240h-292zM567 485h375l-94 543zM641 1608l119 211l448 -220l-108 -194z" />
<glyph unicode="&#xc1;" horiz-adv-x="1310" d="M25 0l700 1329h326l235 -1329h-258l-43 240h-545l-123 -240h-292zM567 485h375l-94 543zM631 1608l526 219l76 -219l-528 -203z" />
<glyph unicode="&#xc2;" horiz-adv-x="1310" d="M25 0l700 1329h326l235 -1329h-258l-43 240h-545l-123 -240h-292zM547 1591l366 238h123l285 -238l-141 -168l-226 168l-307 -184zM567 485h375l-94 543z" />
<glyph unicode="&#xc3;" horiz-adv-x="1310" d="M25 0l700 1329h326l235 -1329h-258l-43 240h-545l-123 -240h-292zM506 1487q17 142 93.5 224.5t191.5 82.5q65 0 120 -19.5t97.5 -39t78.5 -19.5q40 0 58 17.5t26 60.5h211q-22 -145 -94 -226t-188 -81q-65 0 -120.5 19.5t-99.5 39t-81 19.5q-65 0 -82 -78h-211zM567 485 h375l-94 543z" />
<glyph unicode="&#xc4;" horiz-adv-x="1310" d="M25 0l700 1329h326l235 -1329h-258l-43 240h-545l-123 -240h-292zM532 1477l52 288h295l-52 -288h-295zM567 485h375l-94 543zM1004 1477l51 288h295l-52 -288h-294z" />
<glyph unicode="&#xc5;" horiz-adv-x="1310" d="M25 0l700 1329h326l235 -1329h-258l-43 240h-545l-123 -240h-292zM567 485h375l-94 543zM672 1636q0 120 86.5 207.5t220.5 87.5q112 0 181 -63.5t69 -165.5q0 -118 -88 -206.5t-223 -88.5q-109 0 -177.5 63.5t-68.5 165.5zM850 1655q0 -36 23 -59t63 -23q49 0 82 32 t33 78q0 36 -23 59t-65 23q-49 0 -81 -33t-32 -77z" />
<glyph unicode="&#xc6;" horiz-adv-x="1830" d="M-29 0l1033 1329h954l-43 -250h-553l-51 -284h501l-43 -246h-501l-51 -297h561l-45 -252h-824l45 260h-452l-199 -260h-332zM688 506h309l95 530z" />
<glyph unicode="&#xc7;" horiz-adv-x="1370" d="M193 586q0 153 61 294t163.5 244t243.5 164.5t295 61.5q178 0 319.5 -81t217.5 -220l-240 -134q-46 86 -128.5 135.5t-192.5 49.5q-126 0 -234 -67t-170.5 -180.5t-62.5 -244.5q0 -161 94.5 -269t253.5 -108q223 0 375 177l205 -144q-228 -276 -590 -282l-41 -78h20 q72 0 122 -50t50 -135q0 -105 -79.5 -171t-217.5 -66q-151 0 -229 84l129 127q13 -23 45 -38t64 -15q43 0 66.5 16t23.5 45q0 55 -74 55h-162l127 240q-205 45 -329.5 204.5t-124.5 385.5z" />
<glyph unicode="&#xc8;" horiz-adv-x="1079" d="M158 0l233 1329h815l-43 -250h-553l-51 -284h502l-43 -246h-502l-51 -297h561l-45 -252h-823zM586 1608l119 211l448 -220l-109 -194z" />
<glyph unicode="&#xc9;" horiz-adv-x="1079" d="M158 0l233 1329h815l-43 -250h-553l-51 -284h502l-43 -246h-502l-51 -297h561l-45 -252h-823zM575 1608l527 219l76 -219l-529 -203z" />
<glyph unicode="&#xca;" horiz-adv-x="1079" d="M158 0l233 1329h815l-43 -250h-553l-51 -284h502l-43 -246h-502l-51 -297h561l-45 -252h-823zM492 1591l366 238h123l285 -238l-142 -168l-225 168l-307 -184z" />
<glyph unicode="&#xcb;" horiz-adv-x="1079" d="M158 0l233 1329h815l-43 -250h-553l-51 -284h502l-43 -246h-502l-51 -297h561l-45 -252h-823zM477 1477l51 288h295l-51 -288h-295zM948 1477l51 288h295l-51 -288h-295z" />
<glyph unicode="&#xcc;" horiz-adv-x="581" d="M158 0l233 1329h266l-233 -1329h-266zM276 1608l119 211l449 -220l-109 -194z" />
<glyph unicode="&#xcd;" horiz-adv-x="581" d="M158 0l233 1329h266l-233 -1329h-266zM266 1608l527 219l75 -219l-528 -203z" />
<glyph unicode="&#xce;" horiz-adv-x="581" d="M158 0l233 1329h266l-233 -1329h-266zM182 1591l367 238h123l284 -238l-141 -168l-225 168l-307 -184z" />
<glyph unicode="&#xcf;" horiz-adv-x="581" d="M158 0l233 1329h266l-233 -1329h-266zM168 1477l51 288h295l-51 -288h-295zM639 1477l51 288h295l-51 -288h-295z" />
<glyph unicode="&#xd0;" horiz-adv-x="1441" d="M156 551l41 229h127l96 549h457q269 0 441.5 -165t172.5 -421q0 -121 -41 -235t-115 -205t-171 -159.5t-214.5 -106t-240.5 -37.5h-523l97 551h-127zM496 250h237q126 0 237.5 61t180 169.5t68.5 236.5q0 154 -100.5 258t-266.5 104h-211l-53 -299h330l-41 -229h-328z " />
<glyph unicode="&#xd1;" horiz-adv-x="1501" d="M158 0l233 1329h234l532 -887l156 887h264l-234 -1329h-233l-530 889l-158 -889h-264zM602 1487q17 142 93.5 224.5t191.5 82.5q65 0 120 -19.5t98 -39t79 -19.5q40 0 58 17.5t26 60.5h211q-22 -144 -94.5 -225.5t-188.5 -81.5q-65 0 -120.5 19.5t-99.5 39t-81 19.5 q-65 0 -82 -78h-211z" />
<glyph unicode="&#xd2;" horiz-adv-x="1531" d="M193 586q0 152 63 293.5t168.5 244.5t250 164.5t300.5 61.5q177 0 317 -77.5t218.5 -216t78.5 -313.5q0 -155 -64 -296.5t-170.5 -243t-250 -161.5t-297.5 -60q-266 0 -440 170.5t-174 433.5zM465 608q0 -160 101 -268.5t265 -108.5q126 0 237.5 63.5t180 176.5t68.5 246 q0 162 -100.5 272.5t-266.5 110.5q-97 0 -187 -40t-155 -106t-104 -157t-39 -189zM752 1608l118 211l449 -220l-109 -194z" />
<glyph unicode="&#xd3;" horiz-adv-x="1531" d="M193 586q0 152 63 293.5t168.5 244.5t250 164.5t300.5 61.5q177 0 317 -77.5t218.5 -216t78.5 -313.5q0 -155 -64 -296.5t-170.5 -243t-250 -161.5t-297.5 -60q-266 0 -440 170.5t-174 433.5zM465 608q0 -160 101 -268.5t265 -108.5q126 0 237.5 63.5t180 176.5t68.5 246 q0 162 -100.5 272.5t-266.5 110.5q-97 0 -187 -40t-155 -106t-104 -157t-39 -189zM741 1608l527 219l75 -219l-528 -203z" />
<glyph unicode="&#xd4;" horiz-adv-x="1531" d="M193 586q0 152 63 293.5t168.5 244.5t250 164.5t300.5 61.5q177 0 317 -77.5t218.5 -216t78.5 -313.5q0 -155 -64 -296.5t-170.5 -243t-250 -161.5t-297.5 -60q-266 0 -440 170.5t-174 433.5zM465 608q0 -160 101 -268.5t265 -108.5q126 0 237.5 63.5t180 176.5t68.5 246 q0 162 -100.5 272.5t-266.5 110.5q-97 0 -187 -40t-155 -106t-104 -157t-39 -189zM657 1591l367 238h123l285 -238l-142 -168l-225 168l-307 -184z" />
<glyph unicode="&#xd5;" horiz-adv-x="1531" d="M193 586q0 152 63 293.5t168.5 244.5t250 164.5t300.5 61.5q177 0 317 -77.5t218.5 -216t78.5 -313.5q0 -155 -64 -296.5t-170.5 -243t-250 -161.5t-297.5 -60q-266 0 -440 170.5t-174 433.5zM465 608q0 -160 101 -268.5t265 -108.5q126 0 237.5 63.5t180 176.5t68.5 246 q0 162 -100.5 272.5t-266.5 110.5q-97 0 -187 -40t-155 -106t-104 -157t-39 -189zM616 1487q17 142 93.5 224.5t191.5 82.5q65 0 120 -19.5t98 -39t79 -19.5q40 0 58 17.5t26 60.5h211q-22 -144 -94.5 -225.5t-188.5 -81.5q-65 0 -120.5 19.5t-99.5 39t-81 19.5 q-65 0 -82 -78h-211z" />
<glyph unicode="&#xd6;" horiz-adv-x="1531" d="M193 586q0 152 63 293.5t168.5 244.5t250 164.5t300.5 61.5q177 0 317 -77.5t218.5 -216t78.5 -313.5q0 -155 -64 -296.5t-170.5 -243t-250 -161.5t-297.5 -60q-266 0 -440 170.5t-174 433.5zM465 608q0 -160 101 -268.5t265 -108.5q126 0 237.5 63.5t180 176.5t68.5 246 q0 162 -100.5 272.5t-266.5 110.5q-97 0 -187 -40t-155 -106t-104 -157t-39 -189zM643 1477l51 288h295l-51 -288h-295zM1114 1477l51 288h295l-51 -288h-295z" />
<glyph unicode="&#xd7;" d="M213 334l350 299l-239 291l196 168l240 -293l356 303l146 -178l-355 -301l246 -299l-197 -168l-245 299l-353 -299z" />
<glyph unicode="&#xd8;" horiz-adv-x="1564" d="M88 113l199 168q-76 136 -76 305q0 152 63 293.5t168.5 244.5t250 164.5t300.5 61.5q236 0 398 -131l196 165l148 -180l-197 -166q70 -134 70 -295q0 -155 -64 -296.5t-171 -243t-250.5 -161.5t-297.5 -60q-226 0 -387 124l-205 -174zM483 608q0 -67 23 -141l674 571 q-91 62 -211 62q-130 0 -242 -67t-178 -180.5t-66 -244.5zM651 287q88 -56 199 -56q126 0 237.5 63.5t179.5 176.5t68 246q0 72 -20 133z" />
<glyph unicode="&#xd9;" horiz-adv-x="1433" d="M238 537l139 792h266l-137 -780q-28 -160 42 -239t214 -79q302 0 358 318l137 780h267l-140 -792q-96 -555 -645 -555q-130 0 -233 36.5t-171.5 105t-94.5 174.5t-2 239zM702 1608l119 211l449 -220l-109 -194z" />
<glyph unicode="&#xda;" horiz-adv-x="1433" d="M238 537l139 792h266l-137 -780q-28 -160 42 -239t214 -79q302 0 358 318l137 780h267l-140 -792q-96 -555 -645 -555q-130 0 -233 36.5t-171.5 105t-94.5 174.5t-2 239zM692 1608l527 219l75 -219l-528 -203z" />
<glyph unicode="&#xdb;" horiz-adv-x="1433" d="M238 537l139 792h266l-137 -780q-28 -160 42 -239t214 -79q302 0 358 318l137 780h267l-140 -792q-96 -555 -645 -555q-130 0 -233 36.5t-171.5 105t-94.5 174.5t-2 239zM608 1591l367 238h123l284 -238l-141 -168l-225 168l-307 -184z" />
<glyph unicode="&#xdc;" horiz-adv-x="1433" d="M238 537l139 792h266l-137 -780q-28 -160 42 -239t214 -79q302 0 358 318l137 780h267l-140 -792q-96 -555 -645 -555q-130 0 -233 36.5t-171.5 105t-94.5 174.5t-2 239zM594 1477l51 288h295l-51 -288h-295zM1065 1477l51 288h295l-51 -288h-295z" />
<glyph unicode="&#xdd;" horiz-adv-x="1329" d="M254 1329h301l240 -563l430 563h311l-645 -805l-92 -524h-267l93 526zM637 1608l526 219l76 -219l-528 -203z" />
<glyph unicode="&#xde;" horiz-adv-x="1171" d="M158 0l233 1329h266l-36 -215h190q186 0 298 -109.5t112 -277.5q0 -233 -152.5 -369.5t-392.5 -136.5h-213l-39 -221h-266zM506 467h213q104 0 168.5 64.5t64.5 164.5q0 80 -44.5 126t-123.5 46h-209z" />
<glyph unicode="&#xdf;" horiz-adv-x="1150" d="M137 0l166 938q39 218 165 341.5t349 123.5q174 0 279.5 -93t105.5 -235q0 -124 -63 -216.5t-172 -139.5q80 -34 134 -108t54 -165q0 -221 -149.5 -333.5t-409.5 -112.5h-86l43 240h78q134 0 206 50.5t72 145.5q0 74 -50.5 118t-149.5 44h-95l41 229h56q105 0 170 56.5 t65 148.5q0 57 -41 95t-117 38q-99 0 -157 -60t-76 -163l-166 -942h-252z" />
<glyph unicode="&#xe0;" horiz-adv-x="1236" d="M147 442q0 113 43.5 215t116 175t172 116t207.5 43q98 0 177 -40t132 -109l23 131h260l-172 -973h-260l16 98q-129 -116 -291 -116q-181 0 -302.5 133t-121.5 327zM399 463q0 -101 71 -170.5t173 -69.5q115 0 200 84t85 203q0 100 -69 170t-165 70q-123 0 -209 -83.5 t-86 -203.5zM537 1270l118 211l449 -219l-109 -195z" />
<glyph unicode="&#xe1;" horiz-adv-x="1236" d="M147 442q0 113 43.5 215t116 175t172 116t207.5 43q98 0 177 -40t132 -109l23 131h260l-172 -973h-260l16 98q-129 -116 -291 -116q-181 0 -302.5 133t-121.5 327zM399 463q0 -101 71 -170.5t173 -69.5q115 0 200 84t85 203q0 100 -69 170t-165 70q-123 0 -209 -83.5 t-86 -203.5zM518 1270l526 219l76 -219l-528 -203z" />
<glyph unicode="&#xe2;" horiz-adv-x="1236" d="M147 442q0 113 43.5 215t116 175t172 116t207.5 43q98 0 177 -40t132 -109l23 131h260l-172 -973h-260l16 98q-129 -116 -291 -116q-181 0 -302.5 133t-121.5 327zM399 463q0 -101 71 -170.5t173 -69.5q115 0 200 84t85 203q0 100 -69 170t-165 70q-123 0 -209 -83.5 t-86 -203.5zM446 1288l388 238h81l306 -238l-142 -168l-225 168l-307 -184z" />
<glyph unicode="&#xe3;" horiz-adv-x="1236" d="M147 442q0 113 43.5 215t116 175t172 116t207.5 43q98 0 177 -40t132 -109l23 131h260l-172 -973h-260l16 98q-129 -116 -291 -116q-181 0 -302.5 133t-121.5 327zM391 1118q17 142 93.5 224.5t191.5 82.5q65 0 119.5 -21.5t97.5 -43t80 -21.5q43 0 65 19t29 67h201 q-22 -144 -94.5 -225.5t-188.5 -81.5q-65 0 -120.5 22t-99.5 44t-81 22q-78 0 -92 -88h-201zM399 463q0 -101 71 -170.5t173 -69.5q115 0 200 84t85 203q0 100 -69 170t-165 70q-123 0 -209 -83.5t-86 -203.5z" />
<glyph unicode="&#xe4;" horiz-adv-x="1236" d="M147 442q0 113 43.5 215t116 175t172 116t207.5 43q98 0 177 -40t132 -109l23 131h260l-172 -973h-260l16 98q-129 -116 -291 -116q-181 0 -302.5 133t-121.5 327zM399 463q0 -101 71 -170.5t173 -69.5q115 0 200 84t85 203q0 100 -69 170t-165 70q-123 0 -209 -83.5 t-86 -203.5zM449 1137l47 266h268l-47 -266h-268zM899 1137l47 266h268l-47 -266h-268z" />
<glyph unicode="&#xe5;" horiz-adv-x="1236" d="M147 442q0 113 43.5 215t116 175t172 116t207.5 43q98 0 177 -40t132 -109l23 131h260l-172 -973h-260l16 98q-129 -116 -291 -116q-181 0 -302.5 133t-121.5 327zM399 463q0 -101 71 -170.5t173 -69.5q115 0 200 84t85 203q0 100 -69 170t-165 70q-123 0 -209 -83.5 t-86 -203.5zM571 1280q0 113 83 197t210 84q107 0 173.5 -61.5t66.5 -158.5q0 -111 -84.5 -195.5t-212.5 -84.5q-105 0 -170.5 60.5t-65.5 158.5zM737 1296q0 -36 23 -59t63 -23q49 0 82 32.5t33 78.5q0 36 -23 59t-65 23q-49 0 -81 -33t-32 -78z" />
<glyph unicode="&#xe6;" horiz-adv-x="1935" d="M147 442q0 113 43.5 215t116 175t172 116t207.5 43q98 0 177 -40t132 -109l23 131h242l-17 -92q132 110 305 110q191 0 304.5 -124.5t113.5 -319.5q0 -63 -20 -133h-736q18 -88 81.5 -143.5t152.5 -55.5q67 0 121.5 22t111.5 72l168 -155q-100 -94 -195 -133t-216 -39 q-224 0 -322 155l-25 -137h-241l16 98q-129 -116 -291 -116q-181 0 -302.5 133t-121.5 327zM399 463q0 -101 71 -170.5t173 -69.5q115 0 200 84t85 203q0 100 -69 170t-165 70q-123 0 -209 -83.5t-86 -203.5zM1233 590h473q-18 77 -75 122.5t-144 45.5q-85 0 -153 -46.5 t-101 -121.5z" />
<glyph unicode="&#xe7;" horiz-adv-x="1064" d="M147 442q0 151 75 277.5t205 199t286 72.5q133 0 243.5 -66t171.5 -177l-227 -121q-31 56 -87.5 89.5t-123.5 33.5q-123 0 -207 -83.5t-84 -203.5q0 -101 69.5 -170.5t170.5 -69.5q73 0 136.5 32.5t103.5 88.5l200 -133q-71 -96 -178.5 -156.5t-232.5 -70.5l-43 -80h20 q72 0 122 -50t50 -135q0 -105 -79.5 -171t-217.5 -66q-151 0 -229 84l129 127q13 -23 45 -38t63 -15q43 0 66.5 16t23.5 45q0 55 -73 55h-162l125 238q-158 36 -259.5 160t-101.5 288z" />
<glyph unicode="&#xe8;" horiz-adv-x="1130" d="M150 442q0 151 73.5 277.5t201 199t280.5 72.5q196 0 326 -126.5t130 -317.5q0 -63 -20 -133h-735q15 -88 83 -143.5t170 -55.5q103 0 211 92l177 -157q-102 -93 -201 -130.5t-228 -37.5q-199 0 -333.5 133t-134.5 327zM426 590h475q-22 75 -81.5 121.5t-137.5 46.5 q-89 0 -156.5 -46t-99.5 -122zM500 1270l118 211l449 -219l-109 -195z" />
<glyph unicode="&#xe9;" horiz-adv-x="1130" d="M150 442q0 151 73.5 277.5t201 199t280.5 72.5q196 0 326 -126.5t130 -317.5q0 -63 -20 -133h-735q15 -88 83 -143.5t170 -55.5q103 0 211 92l177 -157q-102 -93 -201 -130.5t-228 -37.5q-199 0 -333.5 133t-134.5 327zM426 590h475q-22 75 -81.5 121.5t-137.5 46.5 q-89 0 -156.5 -46t-99.5 -122zM481 1270l527 219l75 -219l-528 -203z" />
<glyph unicode="&#xea;" horiz-adv-x="1130" d="M150 442q0 151 73.5 277.5t201 199t280.5 72.5q196 0 326 -126.5t130 -317.5q0 -63 -20 -133h-735q15 -88 83 -143.5t170 -55.5q103 0 211 92l177 -157q-102 -93 -201 -130.5t-228 -37.5q-199 0 -333.5 133t-134.5 327zM356 1288l387 238h82l305 -238l-141 -168l-225 168 l-307 -184zM426 590h475q-22 75 -81.5 121.5t-137.5 46.5q-89 0 -156.5 -46t-99.5 -122z" />
<glyph unicode="&#xeb;" horiz-adv-x="1130" d="M150 442q0 151 73.5 277.5t201 199t280.5 72.5q196 0 326 -126.5t130 -317.5q0 -63 -20 -133h-735q15 -88 83 -143.5t170 -55.5q103 0 211 92l177 -157q-102 -93 -201 -130.5t-228 -37.5q-199 0 -333.5 133t-134.5 327zM412 1137l47 266h268l-47 -266h-268zM426 590h475 q-22 75 -81.5 121.5t-137.5 46.5q-89 0 -156.5 -46t-99.5 -122zM862 1137l47 266h269l-48 -266h-268z" />
<glyph unicode="&#xec;" horiz-adv-x="534" d="M137 0l172 973h260l-172 -973h-260zM199 1270l118 211l449 -219l-109 -195z" />
<glyph unicode="&#xed;" horiz-adv-x="534" d="M137 0l172 973h260l-172 -973h-260zM180 1270l527 219l75 -219l-528 -203z" />
<glyph unicode="&#xee;" horiz-adv-x="534" d="M109 1288l387 238h82l305 -238l-142 -168l-225 168l-307 -184zM137 0l172 973h260l-172 -973h-260z" />
<glyph unicode="&#xef;" horiz-adv-x="534" d="M111 1137l47 266h268l-47 -266h-268zM137 0l172 973h260l-172 -973h-260zM561 1137l47 266h269l-48 -266h-268z" />
<glyph unicode="&#xf0;" horiz-adv-x="1171" d="M145 418q0 143 73.5 264.5t194.5 190.5t259 69q94 0 159.5 -17t112.5 -61q-26 132 -133 221l-78 -104l-168 98l72 97q-74 22 -150 22l35 205q137 0 256 -39l90 123l168 -94l-88 -119q125 -99 185.5 -260t60.5 -361q0 -319 -155 -495t-421 -176q-129 0 -238 57.5t-172 158 t-63 220.5zM397 438q0 -90 71 -152.5t173 -62.5q123 0 209 76t86 184q0 92 -71 154.5t-173 62.5q-123 0 -209 -76.5t-86 -185.5z" />
<glyph unicode="&#xf1;" horiz-adv-x="1177" d="M137 0l172 973h254l-20 -115q104 133 282 133q185 0 273 -111t51 -321l-98 -559h-260l94 532q19 105 -20.5 161.5t-129.5 56.5q-88 0 -156.5 -58t-86.5 -162l-95 -530h-260zM379 1118q17 142 93.5 224.5t191.5 82.5q65 0 119.5 -21.5t97.5 -43t80 -21.5q43 0 65 19t29 67 h200q-22 -145 -94 -226t-188 -81q-65 0 -120.5 22t-99.5 44t-81 22q-78 0 -92 -88h-201z" />
<glyph unicode="&#xf2;" horiz-adv-x="1173" d="M156 442q0 113 44.5 215t120.5 175t181.5 116t222.5 43q197 0 335 -134t138 -327q0 -151 -75.5 -277t-206.5 -198.5t-287 -72.5q-197 0 -335 133.5t-138 326.5zM408 463q0 -101 70.5 -170.5t172.5 -69.5q123 0 209 83t86 202q0 102 -71 172t-173 70q-123 0 -208.5 -83.5 t-85.5 -203.5zM518 1270l119 211l448 -219l-108 -195z" />
<glyph unicode="&#xf3;" horiz-adv-x="1173" d="M156 442q0 113 44.5 215t120.5 175t181.5 116t222.5 43q197 0 335 -134t138 -327q0 -151 -75.5 -277t-206.5 -198.5t-287 -72.5q-197 0 -335 133.5t-138 326.5zM408 463q0 -101 70.5 -170.5t172.5 -69.5q123 0 209 83t86 202q0 102 -71 172t-173 70q-123 0 -208.5 -83.5 t-85.5 -203.5zM500 1270l526 219l76 -219l-529 -203z" />
<glyph unicode="&#xf4;" horiz-adv-x="1173" d="M156 442q0 113 44.5 215t120.5 175t181.5 116t222.5 43q197 0 335 -134t138 -327q0 -151 -75.5 -277t-206.5 -198.5t-287 -72.5q-197 0 -335 133.5t-138 326.5zM408 463q0 -101 70.5 -170.5t172.5 -69.5q123 0 209 83t86 202q0 102 -71 172t-173 70q-123 0 -208.5 -83.5 t-85.5 -203.5zM428 1288l387 238h82l305 -238l-141 -168l-225 168l-308 -184z" />
<glyph unicode="&#xf5;" horiz-adv-x="1173" d="M156 442q0 113 44.5 215t120.5 175t181.5 116t222.5 43q197 0 335 -134t138 -327q0 -151 -75.5 -277t-206.5 -198.5t-287 -72.5q-197 0 -335 133.5t-138 326.5zM373 1118q17 142 93 224.5t191 82.5q65 0 119.5 -21.5t97.5 -43t80 -21.5q43 0 65.5 19t29.5 67h200 q-22 -145 -94 -226t-188 -81q-65 0 -120.5 22t-99.5 44t-81 22q-79 0 -93 -88h-200zM408 463q0 -101 70.5 -170.5t172.5 -69.5q123 0 209 83t86 202q0 102 -71 172t-173 70q-123 0 -208.5 -83.5t-85.5 -203.5z" />
<glyph unicode="&#xf6;" horiz-adv-x="1173" d="M156 442q0 113 44.5 215t120.5 175t181.5 116t222.5 43q197 0 335 -134t138 -327q0 -151 -75.5 -277t-206.5 -198.5t-287 -72.5q-197 0 -335 133.5t-138 326.5zM408 463q0 -101 70.5 -170.5t172.5 -69.5q123 0 209 83t86 202q0 102 -71 172t-173 70q-123 0 -208.5 -83.5 t-85.5 -203.5zM430 1137l47 266h268l-47 -266h-268zM881 1137l47 266h268l-47 -266h-268z" />
<glyph unicode="&#xf7;" d="M213 506l43 242h1016l-43 -242h-1016zM504 240q0 70 51.5 122t126.5 52q64 0 105.5 -40.5t41.5 -103.5q0 -70 -51.5 -122t-126.5 -52q-64 0 -105.5 40.5t-41.5 103.5zM635 983q0 70 51.5 122t126.5 52q65 0 106.5 -40t41.5 -103q0 -70 -52 -122t-127 -52q-65 0 -106 40 t-41 103z" />
<glyph unicode="&#xf8;" horiz-adv-x="1216" d="M59 80l172 145q-55 99 -55 217q0 113 44.5 215t120.5 175t181.5 116t222.5 43q157 0 283 -90l174 150l129 -158l-168 -143q56 -106 56 -220q0 -151 -76 -277t-207 -198.5t-287 -72.5q-158 0 -284 90l-177 -150zM428 463q0 -37 8 -64l387 330q-54 21 -100 21 q-123 0 -209 -83.5t-86 -203.5zM569 246q51 -23 103 -23q123 0 209 83t86 202q0 30 -11 67z" />
<glyph unicode="&#xf9;" horiz-adv-x="1171" d="M193 414l98 559h260l-94 -533q-19 -105 20 -161t129 -56q88 0 157 57.5t87 161.5l94 531h260l-172 -973h-254l21 115q-104 -133 -283 -133q-185 0 -272.5 111t-50.5 321zM512 1270l119 211l448 -219l-108 -195z" />
<glyph unicode="&#xfa;" horiz-adv-x="1171" d="M193 414l98 559h260l-94 -533q-19 -105 20 -161t129 -56q88 0 157 57.5t87 161.5l94 531h260l-172 -973h-254l21 115q-104 -133 -283 -133q-185 0 -272.5 111t-50.5 321zM494 1270l526 219l76 -219l-529 -203z" />
<glyph unicode="&#xfb;" horiz-adv-x="1171" d="M193 414l98 559h260l-94 -533q-19 -105 20 -161t129 -56q88 0 157 57.5t87 161.5l94 531h260l-172 -973h-254l21 115q-104 -133 -283 -133q-185 0 -272.5 111t-50.5 321zM422 1288l387 238h82l305 -238l-141 -168l-226 168l-307 -184z" />
<glyph unicode="&#xfc;" horiz-adv-x="1171" d="M193 414l98 559h260l-94 -533q-19 -105 20 -161t129 -56q88 0 157 57.5t87 161.5l94 531h260l-172 -973h-254l21 115q-104 -133 -283 -133q-185 0 -272.5 111t-50.5 321zM424 1137l47 266h268l-47 -266h-268zM874 1137l48 266h268l-47 -266h-269z" />
<glyph unicode="&#xfd;" horiz-adv-x="1120" d="M145 -451l289 459l-250 965h283l151 -649l349 649h307l-856 -1424h-273zM469 1270l526 219l76 -219l-528 -203z" />
<glyph unicode="&#xfe;" horiz-adv-x="1245" d="M57 -451l324 1833h260l-90 -508q130 117 293 117q181 0 302.5 -133.5t121.5 -327.5q0 -150 -73.5 -276.5t-197 -199t-268.5 -72.5q-98 0 -177 40.5t-132 110.5l-103 -584h-260zM487 463q0 -100 69 -170t165 -70q123 0 209 83.5t86 203.5q0 101 -71 170.5t-173 69.5 q-115 0 -200 -84t-85 -203z" />
<glyph unicode="&#xff;" horiz-adv-x="1120" d="M145 -451l289 459l-250 965h283l151 -649l349 649h307l-856 -1424h-273zM399 1137l47 266h269l-47 -266h-269zM850 1137l47 266h268l-47 -266h-268z" />
<glyph unicode="&#x152;" horiz-adv-x="2127" d="M193 586q0 152 63 293.5t168.5 244.5t250 164.5t300.5 61.5q265 0 438 -168l27 147h815l-43 -250h-553l-51 -284h501l-43 -246h-501l-52 -297h562l-45 -252h-824l19 102q-194 -120 -418 -120q-266 0 -440 170.5t-174 433.5zM465 608q0 -160 101 -268.5t265 -108.5 q126 0 237.5 63.5t180 176.5t68.5 246q0 162 -100.5 272.5t-266.5 110.5q-97 0 -187 -40t-155 -106t-104 -157t-39 -189z" />
<glyph unicode="&#x153;" horiz-adv-x="1929" d="M156 442q0 113 44.5 215t120.5 175t181.5 116t222.5 43q112 0 208.5 -46t162.5 -126q76 81 182 126.5t225 45.5q196 0 326.5 -126.5t130.5 -317.5q0 -59 -21 -133h-735q15 -88 83.5 -143.5t170.5 -55.5q103 0 211 92l176 -157q-102 -93 -200.5 -130.5t-227.5 -37.5 q-113 0 -208.5 46t-161.5 128q-77 -83 -186 -128.5t-232 -45.5q-197 0 -335 133.5t-138 326.5zM408 463q0 -101 70.5 -170.5t172.5 -69.5q123 0 209 83t86 202q0 102 -71 172t-173 70q-123 0 -208.5 -83.5t-85.5 -203.5zM1225 590h475q-22 75 -81.5 121.5t-137.5 46.5 q-89 0 -156.5 -46t-99.5 -122z" />
<glyph unicode="&#x178;" horiz-adv-x="1329" d="M254 1329h301l240 -563l430 563h311l-645 -805l-92 -524h-267l93 526zM539 1477l51 288h295l-51 -288h-295zM1010 1477l51 288h295l-51 -288h-295z" />
<glyph unicode="&#x2c6;" horiz-adv-x="1228" d="M350 1288l387 238h82l305 -238l-141 -168l-225 168l-307 -184z" />
<glyph unicode="&#x2dc;" horiz-adv-x="1228" d="M319 1118q17 142 93.5 224.5t191.5 82.5q65 0 119.5 -21.5t97.5 -43t80 -21.5q43 0 65 19t29 67h201q-22 -144 -94.5 -225.5t-188.5 -81.5q-65 0 -120.5 22t-99.5 44t-81 22q-78 0 -92 -88h-201z" />
<glyph unicode="&#x2000;" horiz-adv-x="965" />
<glyph unicode="&#x2001;" horiz-adv-x="1931" />
<glyph unicode="&#x2002;" horiz-adv-x="965" />
<glyph unicode="&#x2003;" horiz-adv-x="1931" />
<glyph unicode="&#x2004;" horiz-adv-x="643" />
<glyph unicode="&#x2005;" horiz-adv-x="482" />
<glyph unicode="&#x2006;" horiz-adv-x="321" />
<glyph unicode="&#x2007;" horiz-adv-x="321" />
<glyph unicode="&#x2008;" horiz-adv-x="241" />
<glyph unicode="&#x2009;" horiz-adv-x="386" />
<glyph unicode="&#x200a;" horiz-adv-x="107" />
<glyph unicode="&#x2010;" horiz-adv-x="847" d="M197 461l41 237h618l-41 -237h-618z" />
<glyph unicode="&#x2011;" horiz-adv-x="847" d="M197 461l41 237h618l-41 -237h-618z" />
<glyph unicode="&#x2012;" horiz-adv-x="847" d="M197 461l41 237h618l-41 -237h-618z" />
<glyph unicode="&#x2013;" horiz-adv-x="1216" d="M197 461l41 237h987l-41 -237h-987z" />
<glyph unicode="&#x2014;" horiz-adv-x="1728" d="M197 461l41 237h1499l-41 -237h-1499z" />
<glyph unicode="&#x2018;" horiz-adv-x="460" d="M236 948l215 426h180l-142 -426h-253z" />
<glyph unicode="&#x2019;" horiz-adv-x="448" d="M250 924l141 426h254l-215 -426h-180z" />
<glyph unicode="&#x201a;" horiz-adv-x="475" d="M39 -156l141 426h254l-215 -426h-180z" />
<glyph unicode="&#x201c;" horiz-adv-x="813" d="M236 924l215 426h180l-142 -426h-253zM584 924l215 426h180l-141 -426h-254z" />
<glyph unicode="&#x201d;" horiz-adv-x="796" d="M250 924l141 426h254l-215 -426h-180zM598 924l141 426h254l-215 -426h-180z" />
<glyph unicode="&#x201e;" horiz-adv-x="823" d="M39 -156l141 426h254l-215 -426h-180zM387 -156l141 426h254l-215 -426h-180z" />
<glyph unicode="&#x2022;" horiz-adv-x="825" d="M227 375l86 489h502l-86 -489h-502z" />
<glyph unicode="&#x2026;" horiz-adv-x="1415" d="M113 0l49 281h289l-50 -281h-288zM563 0l49 281h289l-49 -281h-289zM1014 0l49 281h289l-49 -281h-289z" />
<glyph unicode="&#x202f;" horiz-adv-x="386" />
<glyph unicode="&#x2039;" horiz-adv-x="710" d="M135 475l365 363h276l-368 -373l223 -352h-262z" />
<glyph unicode="&#x203a;" horiz-adv-x="710" d="M102 113l369 372l-223 353h262l233 -363l-364 -362h-277z" />
<glyph unicode="&#x205f;" horiz-adv-x="482" />
<glyph unicode="&#x20ac;" horiz-adv-x="1290" d="M125 410l94 190h125q2 34 14 100h-141l94 191h103q87 214 263 336.5t408 122.5q110 0 194 -21t165 -76l-154 -223q-98 70 -237 70q-109 0 -200.5 -55.5t-152.5 -153.5h471l-94 -191h-452q-14 -74 -15 -100h420l-94 -190h-307q28 -87 97.5 -133t174.5 -46q138 0 262 70 l72 -223q-95 -54 -182 -75t-189 -21q-213 0 -351.5 117t-166.5 311h-221z" />
<glyph unicode="&#x2122;" horiz-adv-x="1628" d="M264 1159l31 170h592l-31 -170h-199l-82 -469h-192l82 469h-201zM874 690l115 639h252l39 -428l190 428h261l-111 -639h-176l69 397h-6l-174 -397h-172l-35 397h-6l-69 -397h-177z" />
<glyph unicode="&#x25fc;" horiz-adv-x="972" d="M0 0v973h973v-973h-973z" />
</font>
</defs>
</svg>
