<?xml version="1.0" standalone="no"?>
<!DOCTYPE svg PUBLIC "-//W3C//DTD SVG 1.1//EN" "http://www.w3.org/Graphics/SVG/1.1/DTD/svg11.dtd" >
<svg xmlns="http://www.w3.org/2000/svg" xmlns:xlink="http://www.w3.org/1999/xlink" version="1.1">
<metadata></metadata>
<defs>
<font id="f37_moondemi" horiz-adv-x="1261" >
<font-face units-per-em="2048" ascent="1638" descent="-410" />
<missing-glyph horiz-adv-x="454" />
<glyph unicode="&#xfb01;" horiz-adv-x="1183" d="M72 762v211h145v35q0 192 110 293.5t298 101.5q31 0 51 -2v-211q-18 2 -45 2q-99 0 -148 -39t-49 -145v-35h606v-973h-217v762h-389v-762h-217v762h-145zM819 1153v227h225v-227h-225z" />
<glyph unicode="&#xfb02;" horiz-adv-x="1181" d="M72 762v211h145v35q0 192 110 293.5t298 101.5q31 0 51 -2v-211q-18 2 -45 2q-99 0 -148 -39t-49 -145v-35h387v409h217v-1382h-217v762h-387v-762h-217v762h-145z" />
<glyph horiz-adv-x="0" />
<glyph horiz-adv-x="682" />
<glyph unicode=" "  horiz-adv-x="454" />
<glyph unicode="&#x09;" horiz-adv-x="454" />
<glyph unicode="&#xa0;" horiz-adv-x="454" />
<glyph unicode="!" horiz-adv-x="520" d="M147 0v227h226v-227h-226zM150 911v418h221v-418l-47 -487h-127z" />
<glyph unicode="&#x22;" horiz-adv-x="727" d="M94 1350h217l-32 -394h-154zM416 1350h217l-33 -394h-151z" />
<glyph unicode="#" horiz-adv-x="1130" d="M80 379v184h192l45 217h-157v185h198l52 243h168l-52 -243h209l51 243h168l-51 -243h150v-185h-191l-45 -217h156v-184h-197l-51 -244h-168l51 244h-209l-51 -244h-168l51 244h-151zM440 563h209l45 217h-209z" />
<glyph unicode="$" horiz-adv-x="1107" d="M55 203l146 137q108 -132 270 -156v430q-46 16 -78.5 28.5t-74 32.5t-70 39.5t-58 48.5t-47.5 61t-29.5 75t-11.5 92q0 152 102 242t267 110v220h184v-220q114 -15 209.5 -67.5t155.5 -134.5l-141 -137q-85 107 -224 139v-383q66 -22 112 -41.5t100.5 -53.5t88 -73 t56 -97.5t22.5 -129.5q0 -162 -105 -258t-274 -119v-219h-184v217q-269 24 -416 217zM313 989q0 -57 40.5 -95t117.5 -69v320q-75 -15 -116.5 -55t-41.5 -101zM655 188q80 15 124 57.5t44 106.5q0 70 -44 116.5t-124 80.5v-361z" />
<glyph unicode="%" horiz-adv-x="1732" d="M57 971q0 161 96.5 264.5t247.5 103.5t247.5 -103.5t96.5 -264.5t-96.5 -265t-247.5 -104t-247.5 104t-96.5 265zM223 971q0 -95 50.5 -155t127.5 -60t128 60.5t51 154.5q0 93 -51 154t-128 61t-127.5 -61t-50.5 -154zM455 0l637 1329h184l-635 -1329h-186zM987 362 q0 160 97 264.5t247 104.5t247 -104.5t97 -264.5q0 -161 -96.5 -264.5t-247.5 -103.5t-247.5 103.5t-96.5 264.5zM1151 362q0 -95 51 -156t129 -59q77 -2 127.5 59t50.5 156q0 93 -50.5 153t-127.5 60q-78 0 -129 -60t-51 -153z" />
<glyph unicode="&#x26;" horiz-adv-x="1257" d="M88 367q0 249 229 327q-192 88 -192 297q0 163 116.5 261t342.5 98q82 0 155 -9v-206q-82 10 -143 10q-121 0 -183.5 -49t-62.5 -129q0 -79 49.5 -125.5t153.5 -46.5h250v174h211v-174h166v-207h-166v-383h166v-205h-629q-209 0 -336 101.5t-127 265.5zM313 395 q0 -89 63 -139.5t177 -50.5h250v383h-256q-111 0 -172.5 -52t-61.5 -141z" />
<glyph unicode="'" horiz-adv-x="403" d="M94 1350h217l-32 -394h-154z" />
<glyph unicode="(" horiz-adv-x="669" d="M78 520q0 276 118 488t326 348l123 -164q-164 -123 -254 -285t-90 -387q0 -226 89.5 -388.5t254.5 -285.5l-123 -163q-208 136 -326 348t-118 489z" />
<glyph unicode=")" horiz-adv-x="669" d="M25 -154q165 123 254.5 285.5t89.5 388.5q0 225 -90 387t-254 285l122 164q208 -136 326.5 -348t118.5 -488q0 -277 -118.5 -489t-326.5 -348z" />
<glyph unicode="*" horiz-adv-x="739" d="M80 958l176 78l-176 80l78 133l155 -114l-22 192h155l-20 -192l156 114l77 -133l-176 -80l176 -78l-77 -133l-156 111l20 -188h-155l20 188l-153 -111z" />
<glyph unicode="+" d="M139 526v201h391v391h201v-391h391v-201h-391v-391h-201v391h-391z" />
<glyph unicode="," horiz-adv-x="444" d="M82 -176l45 409h219l-106 -409h-158z" />
<glyph unicode="-" horiz-adv-x="841" d="M117 469v199h606v-199h-606z" />
<glyph unicode="." horiz-adv-x="481" d="M117 0v242h248v-242h-248z" />
<glyph unicode="/" horiz-adv-x="747" d="M51 0l434 1329h211l-434 -1329h-211z" />
<glyph unicode="0" horiz-adv-x="1191" d="M115 467v397q0 211 132 348.5t349 137.5t349 -137.5t132 -348.5v-397q0 -138 -58 -248t-168.5 -173.5t-254.5 -63.5t-254.5 63.5t-168.5 173.5t-58 248zM336 485q0 -135 69 -207.5t191 -72.5t191 72.5t69 207.5v361q0 135 -69 207.5t-191 72.5t-191 -72.5t-69 -207.5 v-361z" />
<glyph unicode="1" horiz-adv-x="671" d="M68 1108v221h436v-1329h-236v1108h-200z" />
<glyph unicode="2" horiz-adv-x="1075" d="M88 0v164l498 545q73 80 105 134t32 122q0 78 -52.5 125t-144.5 47q-100 0 -155.5 -61t-55.5 -173h-221q0 205 118 326t318 121q196 0 306 -106t110 -286q0 -106 -52 -195t-167 -214l-299 -326h559v-223h-899z" />
<glyph unicode="3" horiz-adv-x="1052" d="M55 268l183 107q61 -189 270 -189q107 0 171 55t64 146q0 99 -66 154t-185 55h-66l-96 145l305 383h-512v205h795v-176l-312 -383q167 -28 259.5 -127t92.5 -252q0 -184 -124.5 -296.5t-325.5 -112.5q-161 0 -279 72t-174 214z" />
<glyph unicode="4" horiz-adv-x="1177" d="M51 270v146l416 913h242l-383 -846h383v346h227v-346h188v-213h-188v-270h-227v270h-658z" />
<glyph unicode="5" horiz-adv-x="1058" d="M68 274l186 109q60 -190 268 -190q105 0 168.5 56t63.5 152q0 99 -65 158t-181 59h-369l45 711h725v-211h-516l-20 -289h151q199 0 326 -115t127 -311q0 -191 -126.5 -306t-328.5 -115q-162 0 -281 73.5t-173 218.5z" />
<glyph unicode="6" horiz-adv-x="1114" d="M82 442q0 55 12.5 108.5t37.5 105.5t41.5 80t45.5 73l330 520h264l-303 -471q50 27 125 27q80 0 156.5 -34.5t134 -92.5t92.5 -140.5t35 -173.5q0 -194 -140.5 -328t-345.5 -134q-203 0 -344 133t-141 327zM305 438q0 -104 74 -174.5t188 -70.5q116 0 190 70.5t74 174.5 t-77 178t-187 74t-186 -73.5t-76 -178.5z" />
<glyph unicode="7" horiz-adv-x="1026" d="M53 1108v221h920v-194l-553 -1135h-262l557 1108h-662z" />
<glyph unicode="8" horiz-adv-x="1148" d="M88 401q0 123 56.5 213.5t154.5 139.5q-129 90 -129 250q0 151 110.5 248.5t294.5 97.5q183 0 293.5 -97.5t110.5 -248.5q0 -162 -129 -250q99 -49 156 -139.5t57 -213.5q0 -180 -139.5 -299.5t-348.5 -119.5q-210 0 -348.5 119.5t-138.5 299.5zM309 420 q0 -103 74.5 -165t191.5 -62t191 62t74 165q0 98 -75 162.5t-190 64.5q-117 0 -191.5 -64t-74.5 -163zM387 989q0 -74 53.5 -117t134.5 -43t134 43t53 117q0 70 -54 116t-133 46q-80 0 -134 -46t-54 -116z" />
<glyph unicode="9" horiz-adv-x="1114" d="M61 885q0 194 140.5 328.5t345.5 134.5q203 0 344 -133.5t141 -327.5q0 -55 -12.5 -108.5t-37.5 -105.5t-41.5 -80t-45.5 -73l-330 -520h-264l303 471q-50 -27 -125 -27q-80 0 -156.5 34.5t-134 92.5t-92.5 140.5t-35 173.5zM283 891q0 -104 77 -178t187 -74t186 73.5 t76 178.5q0 104 -74 175t-188 71q-115 0 -189.5 -71t-74.5 -175z" />
<glyph unicode=":" horiz-adv-x="483" d="M119 0v242h248v-242h-248zM119 702v242h248v-242h-248z" />
<glyph unicode=";" horiz-adv-x="518" d="M115 -176l45 409h219l-107 -409h-157zM143 702v242h246v-242h-246z" />
<glyph unicode="&#x3c;" d="M270 649l549 561l150 -147l-414 -414l414 -416l-150 -147z" />
<glyph unicode="=" d="M139 332v200h983v-200h-983zM139 741v201h983v-201h-983z" />
<glyph unicode="&#x3e;" d="M293 233l414 416l-414 414l149 147l549 -561l-549 -563z" />
<glyph unicode="?" horiz-adv-x="983" d="M55 911q0 202 117 320.5t313 118.5q192 0 302 -101t110 -262q0 -58 -17.5 -108.5t-45 -87.5t-61 -70t-66.5 -61.5t-60.5 -55.5t-45 -59t-17.5 -66v-55h-209v63q0 46 17 89t44 77t59.5 65.5t65.5 61.5t60 59t44 63t17 69q0 83 -52.5 129.5t-146.5 46.5q-101 0 -157 -61.5 t-56 -174.5h-215zM369 0v227h223v-227h-223z" />
<glyph unicode="@" horiz-adv-x="1947" d="M74 371q0 251 117 450.5t324 311.5t466 112q195 0 360.5 -63.5t280.5 -175t179.5 -266t64.5 -332.5q0 -238 -106 -380.5t-285 -142.5q-217 0 -293 181q-109 -125 -277 -125q-98 0 -188 50.5t-149.5 147.5t-59.5 217t58.5 219t149 152t189.5 53q190 0 273 -137v123h194 v-561q0 -66 34 -96.5t85 -30.5q78 0 123 88t45 242q0 289 -182 464t-496 175q-317 0 -508.5 -184t-191.5 -492t183 -493t486 -185q189 0 330 59l72 -184q-151 -72 -402 -72q-188 0 -351 65.5t-278 180.5t-181 277.5t-66 351.5zM698 356q0 -94 69 -162.5t165 -68.5 q99 0 168 68t69 163q0 101 -68.5 169.5t-168.5 68.5q-97 0 -165.5 -69.5t-68.5 -168.5z" />
<glyph unicode="A" horiz-adv-x="1292" d="M27 0l481 1329h274l484 -1329h-224l-100 279h-580l-98 -279h-237zM436 485h430l-217 596z" />
<glyph unicode="B" horiz-adv-x="1210" d="M164 0v1329h506q174 0 289.5 -101t115.5 -265q0 -172 -133 -275q182 -95 182 -305q0 -171 -116.5 -277t-296.5 -106h-547zM383 205h328q90 0 143 52t53 140q0 78 -51.5 130.5t-128.5 52.5h-344v-375zM383 776h313q70 0 115 50t45 124q0 73 -51.5 123.5t-130.5 50.5h-291 v-348z" />
<glyph unicode="C" horiz-adv-x="1372" d="M82 666q0 190 85 345.5t241.5 247t355.5 91.5q177 0 324 -79.5t239 -219.5l-188 -117q-63 98 -159 152.5t-216 54.5q-195 0 -327 -139.5t-132 -335.5q0 -129 59 -238t165 -173.5t235 -64.5q120 0 216 54.5t159 152.5l188 -116q-92 -140 -239 -219.5t-324 -79.5 q-199 0 -355.5 91.5t-241.5 247t-85 345.5z" />
<glyph unicode="D" horiz-adv-x="1398" d="M164 0v1329h491q202 0 353.5 -88.5t229 -237.5t77.5 -337q0 -189 -79 -339.5t-230.5 -238.5t-350.5 -88h-491zM385 209h270q194 0 315.5 122t121.5 335q0 212 -121.5 333t-315.5 121h-270v-911z" />
<glyph unicode="E" horiz-adv-x="1064" d="M164 0v1329h799v-209h-580v-342h526v-207h-526v-360h586v-211h-805z" />
<glyph unicode="F" horiz-adv-x="1013" d="M164 0v1329h786v-209h-565v-368h516v-211h-516v-541h-221z" />
<glyph unicode="G" horiz-adv-x="1460" d="M82 666q0 190 85 345.5t241.5 247t355.5 91.5q148 0 277 -56.5t223 -158.5l-158 -154q-63 75 -151 117.5t-191 42.5q-195 0 -327 -139.5t-132 -335.5q0 -129 59 -238t165 -173.5t235 -64.5q156 0 272 91t133 254h-370v186h596q4 -25 4 -74q0 -188 -78.5 -339t-224 -238.5 t-332.5 -87.5q-199 0 -355.5 91.5t-241.5 247t-85 345.5z" />
<glyph unicode="H" horiz-adv-x="1353" d="M164 0v1329h221v-549h584v549h223v-1329h-223v571h-584v-571h-221z" />
<glyph unicode="I" horiz-adv-x="548" d="M164 0v1329h221v-1329h-221z" />
<glyph unicode="J" horiz-adv-x="1013" d="M16 154l129 163q108 -127 263 -127q113 0 173 71t60 214v854h221v-872q0 -228 -120.5 -351.5t-323.5 -123.5q-246 0 -402 172z" />
<glyph unicode="K" horiz-adv-x="1222" d="M164 0v1329h219v-643l539 643h264l-508 -600l553 -729h-264l-430 561l-154 -176v-385h-219z" />
<glyph unicode="L" horiz-adv-x="1001" d="M164 0v1329h242v-1116h561v-213h-803z" />
<glyph unicode="M" horiz-adv-x="1767" d="M164 0v1329h338l383 -1083l379 1083h340v-1329h-222v1040l-374 -1040h-248l-375 1028v-1028h-221z" />
<glyph unicode="N" horiz-adv-x="1490" d="M164 0v1329h213l729 -964v964h221v-1329h-209l-733 971v-971h-221z" />
<glyph unicode="O" horiz-adv-x="1527" d="M82 664q0 142 52 268.5t142 218.5t217 145.5t271 53.5q141 0 267.5 -53t217.5 -144t144 -218t53 -269q0 -143 -53.5 -270.5t-144.5 -218t-217 -143t-267 -52.5q-187 0 -343.5 88.5t-247.5 245.5t-91 348zM305 662q0 -199 132.5 -335.5t326.5 -136.5t326.5 137.5 t132.5 336.5t-132 338t-327 139q-129 0 -235 -65t-165 -174.5t-59 -239.5z" />
<glyph unicode="P" horiz-adv-x="1132" d="M164 0v1329h459q199 0 328.5 -126t129.5 -312q0 -185 -128 -311.5t-330 -126.5h-238v-453h-221zM385 659h238q107 0 172 66t65 166q0 101 -65.5 167t-171.5 66h-238v-465z" />
<glyph unicode="Q" horiz-adv-x="1527" d="M82 664q0 142 52 268.5t142 218.5t217 145.5t271 53.5q141 0 267.5 -53t217.5 -144t144 -218t53 -269q0 -265 -170 -459l145 -152l-155 -139l-152 158q-159 -92 -350 -92q-187 0 -343.5 88.5t-247.5 245.5t-91 348zM305 662q0 -199 132.5 -335.5t326.5 -136.5 q103 0 197 43l-236 248l158 140l241 -254q99 133 99 297q0 199 -132 338t-327 139q-129 0 -235 -65t-165 -174.5t-59 -239.5z" />
<glyph unicode="R" horiz-adv-x="1173" d="M164 0v1329h430q120 0 212.5 -32.5t147 -89.5t82 -128.5t27.5 -154.5q0 -136 -64.5 -240t-187.5 -149l303 -535h-254l-285 506h-200v-506h-211zM375 680h231q121 0 182.5 61t61.5 166q0 104 -61.5 166t-182.5 62h-231v-455z" />
<glyph unicode="S" horiz-adv-x="1128" d="M55 211l154 145q132 -166 352 -166q117 0 189.5 43t72.5 125q0 55 -31 96.5t-81.5 66.5t-115 49.5t-132 44t-132 51.5t-115 70.5t-81.5 102.5t-31 146q0 118 64.5 202t169 123.5t235.5 39.5q142 0 266 -57t197 -158l-149 -148q-55 72 -138 113t-178 41 q-108 0 -175.5 -40.5t-67.5 -117.5q0 -41 24.5 -73t66.5 -53.5t96 -40.5t114 -38.5t119.5 -41.5t113.5 -54t96 -72.5t66.5 -101t24.5 -135.5q0 -97 -39.5 -173.5t-107 -123t-153.5 -70.5t-184 -24q-343 0 -510 229z" />
<glyph unicode="T" horiz-adv-x="1134" d="M33 1122v207h1069v-207h-424v-1122h-221v1122h-424z" />
<glyph unicode="U" horiz-adv-x="1427" d="M150 543v786h221v-778q0 -183 91 -272t251 -89t251 89t91 272v778h223v-786q0 -273 -153 -417t-412 -144q-258 0 -410.5 144t-152.5 417z" />
<glyph unicode="V" horiz-adv-x="1325" d="M25 1329h235l406 -1106l407 1106h227l-503 -1329h-269z" />
<glyph unicode="W" horiz-adv-x="2017" d="M25 1329h229l313 -1073l322 1073h246l319 -1073l313 1073h226l-406 -1329h-268l-309 1016l-312 -1016h-268z" />
<glyph unicode="X" horiz-adv-x="1220" d="M12 0l465 674l-452 655h262l325 -487l326 487h256l-451 -653l465 -676h-260l-340 506l-340 -506h-256z" />
<glyph unicode="Y" horiz-adv-x="1302" d="M27 1329h258l368 -594l369 594h252l-510 -794v-535h-223v535z" />
<glyph unicode="Z" horiz-adv-x="1134" d="M76 0v170l686 954h-684v205h979v-170l-684 -954h684v-205h-981z" />
<glyph unicode="[" horiz-adv-x="743" d="M160 -305v1634h532v-188h-313v-1258h313v-188h-532z" />
<glyph unicode="\" horiz-adv-x="747" d="M51 1329h211l434 -1329h-211z" />
<glyph unicode="]" horiz-adv-x="743" d="M49 -117h316v1258h-316v188h535v-1634h-535v188z" />
<glyph unicode="^" d="M150 600l358 729h246l358 -729h-219l-264 551l-260 -551h-219z" />
<glyph unicode="_" horiz-adv-x="1081" d="M86 -55h907v-201h-907v201z" />
<glyph unicode="`" horiz-adv-x="1228" d="M123 1286l84 180l469 -229l-78 -166z" />
<glyph unicode="a" horiz-adv-x="1239" d="M74 481q0 109 42 206t109.5 162.5t153 103.5t172.5 38q232 0 332 -168v150h213v-973h-217v135q-114 -153 -328 -153q-86 0 -171 36.5t-153 100t-110.5 159t-42.5 203.5zM283 481q0 -122 89 -210.5t214 -88.5q127 0 217 89t90 212q0 128 -90 218t-217 90 q-126 0 -214.5 -90.5t-88.5 -219.5z" />
<glyph unicode="b" horiz-adv-x="1245" d="M143 0v1382h211v-548q33 55 90.5 92t114 51t113.5 14q139 0 254 -69.5t180 -187t65 -255.5q0 -133 -66 -247.5t-182 -182t-255 -67.5q-185 0 -314 139v-121h-211zM354 479q0 -128 89 -212.5t219 -84.5q126 0 214.5 89t88.5 208q0 126 -88.5 219t-214.5 93 q-130 0 -219 -89t-89 -223z" />
<glyph unicode="c" horiz-adv-x="1067" d="M74 487q0 138 68 254.5t186 184t258 67.5q134 0 248 -61.5t186 -167.5l-180 -105q-42 62 -108.5 97t-145.5 35q-127 0 -216 -89.5t-89 -214.5t89 -215t216 -90q82 0 150 37.5t110 104.5l178 -107q-70 -109 -186 -172t-252 -63q-140 0 -258 67.5t-186 184t-68 253.5z" />
<glyph unicode="d" horiz-adv-x="1247" d="M74 479q0 138 65 255.5t180 187t254 69.5q92 0 181 -38t139 -119v548h211v-1382h-211v121q-129 -139 -313 -139q-139 0 -255.5 67.5t-183.5 182t-67 247.5zM283 479q0 -119 88.5 -208t214.5 -89q129 0 218 84.5t89 212.5q0 134 -89 223t-218 89q-126 0 -214.5 -93 t-88.5 -219z" />
<glyph unicode="e" horiz-adv-x="1130" d="M74 485q0 137 61.5 252t177.5 184.5t262 69.5q209 0 349.5 -146t140.5 -351q0 -36 -6 -70h-778q19 -111 101.5 -180.5t205.5 -69.5q80 0 151 31t115 90l145 -115q-66 -93 -174.5 -145.5t-234.5 -52.5q-143 0 -261.5 66t-186.5 181.5t-68 255.5zM289 584h561 q-13 93 -92 154t-185 61q-102 0 -179 -59t-105 -156z" />
<glyph unicode="f" horiz-adv-x="716" d="M72 762v211h145v35q0 192 110 293.5t298 101.5q31 0 51 -2v-211q-18 2 -45 2q-99 0 -148 -39t-49 -145v-35h242v-211h-242v-762h-217v762h-145z" />
<glyph unicode="g" horiz-adv-x="1239" d="M76 481q0 109 42 206t109.5 162.5t153 103.5t172.5 38q232 0 332 -168v150h213v-918q0 -248 -142 -387t-391 -139q-120 0 -232 30.5t-196 88.5l80 182q158 -102 340 -102q149 0 236.5 82.5t87.5 234.5v90q-114 -153 -328 -153q-86 0 -171 36.5t-153 100t-110.5 159 t-42.5 203.5zM285 481q0 -122 89 -210.5t214 -88.5q127 0 217 89t90 212q0 128 -90 218t-217 90q-126 0 -214.5 -90.5t-88.5 -219.5z" />
<glyph unicode="h" horiz-adv-x="1175" d="M143 0v1382h213v-555q44 83 124.5 123.5t181.5 40.5q170 0 276 -101.5t106 -279.5v-610h-217v537q0 120 -59.5 187t-163.5 67t-174 -68t-70 -195v-528h-217z" />
<glyph unicode="i" horiz-adv-x="503" d="M139 1153v227h226v-227h-226zM143 0v973h217v-973h-217z" />
<glyph unicode="j" horiz-adv-x="503" d="M-57 -258q20 -2 41 -2q159 0 159 184v1049h217v-1049q0 -202 -92.5 -298.5t-277.5 -96.5q-24 0 -47 2v211zM139 1153v227h226v-227h-226z" />
<glyph unicode="k" horiz-adv-x="1052" d="M143 0v1382h217v-811l392 402h272l-399 -412l438 -561h-254l-330 412l-119 -125v-287h-217z" />
<glyph unicode="l" horiz-adv-x="503" d="M143 0v1382h217v-1382h-217z" />
<glyph unicode="m" horiz-adv-x="1781" d="M143 0v973h213v-137q94 155 289 155q110 0 190.5 -45.5t122.5 -126.5q104 172 332 172q169 0 264 -103.5t95 -273.5v-614h-217v537q0 123 -52.5 188.5t-154.5 65.5t-160.5 -68.5t-58.5 -194.5v-528h-218v537q0 122 -54 188t-156 66q-103 0 -160.5 -72.5t-57.5 -196.5 v-522h-217z" />
<glyph unicode="n" horiz-adv-x="1175" d="M143 0v973h213v-144q89 162 306 162q170 0 276 -101.5t106 -279.5v-610h-217v537q0 120 -59.5 187t-163.5 67t-174 -68t-70 -195v-528h-217z" />
<glyph unicode="o" horiz-adv-x="1175" d="M74 485q0 137 68 253.5t186 184.5t258 68q142 0 261 -68t187 -184t68 -254q0 -101 -40.5 -194t-109.5 -160.5t-164.5 -108t-201.5 -40.5q-139 0 -257 68t-186.5 184t-68.5 251zM281 485q0 -121 90 -212t215 -91q128 0 218.5 91t90.5 212q0 122 -90.5 214t-218.5 92 q-126 0 -215.5 -92t-89.5 -214z" />
<glyph unicode="p" horiz-adv-x="1245" d="M143 -451v1424h211v-139q33 55 90.5 92t114 51t113.5 14q139 0 254 -69.5t180 -187t65 -255.5q0 -133 -66 -247.5t-182 -182t-255 -67.5q-192 0 -314 139v-572h-211zM354 479q0 -128 89 -212.5t219 -84.5q126 0 214.5 89t88.5 208q0 126 -88.5 219t-214.5 93 q-130 0 -219 -89t-89 -223z" />
<glyph unicode="q" horiz-adv-x="1247" d="M74 479q0 138 65 255.5t180 187t254 69.5q92 0 181 -38t139 -119v139h211v-1424h-211v572q-122 -139 -313 -139q-139 0 -255.5 67.5t-183.5 182t-67 247.5zM283 479q0 -119 88.5 -208t214.5 -89q129 0 218 84.5t89 212.5q0 134 -89 223t-218 89q-126 0 -214.5 -93 t-88.5 -219z" />
<glyph unicode="r" horiz-adv-x="737" d="M143 0v973h222v-199q35 102 119.5 159.5t213.5 57.5v-243q-16 2 -39 2q-53 0 -103 -17t-94 -52q-46 -35 -72 -97q-26 -60 -25 -136v-6v-442h-222z" />
<glyph unicode="s" horiz-adv-x="907" d="M45 207l186 98q67 -139 238 -139q79 0 118.5 26t39.5 72q0 38 -29.5 65t-77.5 44t-105 33t-114.5 38t-105.5 52.5t-77.5 83.5t-29.5 125q0 135 103.5 211.5t263.5 76.5q119 0 215.5 -50.5t152.5 -145.5l-182 -99q-63 111 -195 111q-67 0 -103 -25.5t-36 -72.5 q0 -31 23 -54.5t61 -37t86.5 -28.5t99 -28.5t99 -37.5t86.5 -55t61 -82t23 -116q0 -135 -103 -212.5t-280 -77.5q-311 0 -418 225z" />
<glyph unicode="t" horiz-adv-x="710" d="M45 762v211h180v248h217v-248h242v-211h-242v-762h-217v762h-180z" />
<glyph unicode="u" horiz-adv-x="1171" d="M131 379v594h211v-561q0 -114 59.5 -177t165.5 -63q114 0 182 71t68 206v524h211v-973h-211v139q-89 -162 -309 -162q-170 0 -273.5 110t-103.5 292z" />
<glyph unicode="v" horiz-adv-x="1069" d="M25 973h227l283 -717l282 717h227l-397 -973h-223z" />
<glyph unicode="w" horiz-adv-x="1669" d="M27 973h235l227 -697l252 697h189l248 -697l229 697h238l-357 -973h-209l-243 680l-236 -680h-221z" />
<glyph unicode="x" horiz-adv-x="991" d="M14 0l361 500l-340 473h241l220 -307l219 307h241l-340 -475l361 -498h-242l-239 332l-240 -332h-242z" />
<glyph unicode="y" horiz-adv-x="1095" d="M16 973h244l299 -709l268 709h246l-610 -1424h-219l207 455z" />
<glyph unicode="z" horiz-adv-x="942" d="M84 0v197l518 585h-518v191h776v-193l-516 -590h516v-190h-776z" />
<glyph unicode="{" horiz-adv-x="749" d="M55 416v192q98 5 140.5 56t42.5 167v246q0 116 65.5 184t177.5 68h217v-188h-125q-116 0 -116 -137v-201q0 -234 -195 -289q195 -61 195 -291v-203q0 -137 116 -137h125v-188h-217q-112 0 -177.5 68.5t-65.5 185.5v246q0 115 -43 165.5t-140 55.5z" />
<glyph unicode="|" horiz-adv-x="538" d="M160 -180v1509h219v-1509h-219z" />
<glyph unicode="}" horiz-adv-x="749" d="M51 -117h125q117 0 117 137v203q0 230 194 291q-194 55 -194 289v201q0 137 -117 137h-125v188h217q112 0 178 -68t66 -184v-246q0 -116 43 -167t139 -56v-192q-96 -5 -139 -56t-43 -165v-246q0 -117 -66 -185.5t-178 -68.5h-217v188z" />
<glyph unicode="~" d="M139 514q0 129 71.5 203t201.5 74q76 0 154 -21.5t145.5 -43t117.5 -21.5q91 0 91 86h208q0 -128 -70 -202.5t-194 -74.5q-80 0 -162 21.5t-147 43t-104 21.5q-48 0 -75.5 -22t-27.5 -64h-209z" />
<glyph unicode="&#xa1;" horiz-adv-x="491" d="M135 61l47 488h129l45 -488v-417h-221v417zM135 745v228h223v-228h-223z" />
<glyph unicode="&#xa2;" horiz-adv-x="1021" d="M76 664q0 169 106 297.5t269 162.5v205h192v-203q99 -19 180 -74t135 -141l-180 -102q-37 60 -96 92.5t-131 32.5q-116 0 -192 -77.5t-76 -192.5q0 -116 75.5 -192.5t192.5 -76.5q75 0 135.5 35t97.5 98l177 -106q-52 -86 -135 -142t-183 -75v-205h-192v207 q-162 34 -268.5 162.5t-106.5 294.5z" />
<glyph unicode="&#xa3;" horiz-adv-x="1101" d="M94 0v184q111 102 155 164.5t50 151.5h-199v194h160q-6 12 -28.5 55t-32 65.5t-19.5 69t-10 97.5q0 164 113 266.5t309 102.5q200 0 315 -117t115 -309h-221q0 93 -56 153t-153 60q-93 0 -146 -48t-53 -126q0 -35 5 -65.5t16 -60.5t19.5 -48t26 -50t23.5 -45h385v-194 h-348q-8 -86 -49 -148.5t-117 -128.5h654v-223h-914z" />
<glyph unicode="&#xa4;" horiz-adv-x="1241" d="M92 299l148 147q-72 104 -72 244q0 135 72 244l-148 149l133 134l154 -152q109 61 244 61q132 0 241 -61l152 152l133 -134l-145 -147q71 -107 71 -246q0 -137 -71 -244l145 -147l-133 -133l-152 151q-109 -61 -241 -61q-138 0 -244 61l-154 -151zM369 690 q0 -109 72 -179.5t182 -70.5q109 0 180 70.5t71 179.5t-71 180.5t-180 71.5q-110 0 -182 -71.5t-72 -180.5z" />
<glyph unicode="&#xa5;" horiz-adv-x="1359" d="M55 1329h258l371 -594l367 594h252l-330 -514h254v-162h-359l-75 -118v-64h434v-162h-434v-309h-224v309h-434v162h434v64l-77 118h-357v162h252z" />
<glyph unicode="&#xa6;" horiz-adv-x="538" d="M160 -180v583h219v-583h-219zM160 745v584h219v-584h-219z" />
<glyph unicode="&#xa7;" horiz-adv-x="1032" d="M88 569q0 173 164 250q-135 79 -135 230q0 134 114.5 217.5t309.5 83.5q114 0 221 -47t170 -125l-135 -123q-105 119 -256 119q-112 0 -165.5 -34.5t-53.5 -88.5q0 -40 34.5 -71t89 -53t121 -43.5t133 -49.5t121 -64t89 -94t34.5 -133q0 -172 -162 -250q133 -80 133 -230 q0 -134 -114 -217.5t-309 -83.5q-113 0 -221 47t-169 125l134 125q103 -120 256 -120q112 0 166.5 34.5t54.5 89.5q0 40 -34.5 71.5t-89.5 54t-122 44t-133.5 50t-121.5 64t-89.5 92.5t-34.5 130zM291 596q0 -27 8.5 -50.5t20.5 -40.5t35.5 -34t42.5 -27.5t53 -23.5 t55.5 -20t61.5 -20t61 -20q112 40 112 156q0 22 -5.5 42t-13 35.5t-23 30t-28 25.5t-35.5 22.5t-39 18.5t-44.5 17t-45.5 15t-49 15l-48 15q-119 -40 -119 -156z" />
<glyph unicode="&#xa8;" horiz-adv-x="1228" d="M158 1151v231h231v-231h-231zM592 1151v231h231v-231h-231z" />
<glyph unicode="&#xa9;" horiz-adv-x="1527" d="M82 664q0 194 88.5 351t244.5 246t349 89q192 0 348 -89t245 -246t89 -351q0 -145 -53.5 -272.5t-145 -217t-217.5 -141t-266 -51.5t-266 51.5t-217.5 141t-145 217t-53.5 272.5zM236 662q0 -239 150 -390t378 -151t378 151t150 390q0 159 -68 284t-188.5 194.5 t-271.5 69.5t-271.5 -69.5t-188.5 -194.5t-68 -284zM393 666q0 158 112.5 269.5t272.5 111.5q101 0 187 -46t139 -127l-137 -81q-31 46 -81 72t-108 26q-95 0 -161 -66t-66 -159t66 -159.5t161 -66.5q60 0 110.5 27.5t82.5 77.5l135 -82q-53 -83 -139.5 -130.5t-188.5 -47.5 q-159 0 -272 112t-113 269z" />
<glyph unicode="&#xaa;" horiz-adv-x="903" d="M74 1006q0 142 96 238.5t217 96.5q153 0 219 -110v98h172v-639h-176v86q-76 -98 -215 -98q-119 0 -216 93.5t-97 234.5zM246 1012q0 -69 47.5 -118.5t116.5 -49.5q71 0 118 48.5t47 119.5q0 67 -47 114.5t-118 47.5q-68 0 -116 -48t-48 -114z" />
<glyph unicode="&#xab;" horiz-adv-x="1081" d="M59 475l293 356h228l-289 -356l289 -354h-230zM469 475l295 356h225l-289 -356l289 -354h-229z" />
<glyph unicode="&#xac;" d="M131 526v201h985v-502h-223v301h-762z" />
<glyph unicode="&#xad;" horiz-adv-x="841" d="M117 469v199h606v-199h-606z" />
<glyph unicode="&#xae;" horiz-adv-x="1527" d="M82 664q0 194 88.5 351t244.5 246t349 89q192 0 348 -89t245 -246t89 -351q0 -145 -53.5 -272.5t-145 -217t-217.5 -141t-266 -51.5t-266 51.5t-217.5 141t-145 217t-53.5 272.5zM236 662q0 -239 150 -390t378 -151t378 151t150 390q0 159 -68 284t-188.5 194.5 t-271.5 69.5t-271.5 -69.5t-188.5 -194.5t-68 -284zM528 311v738h258q126 0 205.5 -64.5t79.5 -167.5q0 -76 -41 -134.5t-112 -84.5l172 -287h-183l-147 269h-74v-269h-158zM686 705h109q56 0 90.5 28t34.5 74q0 47 -34 75.5t-91 28.5h-109v-206z" />
<glyph unicode="&#xaf;" horiz-adv-x="1228" d="M123 1182v192h674v-192h-674z" />
<glyph unicode="&#xb0;" horiz-adv-x="753" d="M74 1042q0 127 86 212t217 85t217 -85t86 -212q0 -128 -86 -213.5t-217 -85.5t-217 85.5t-86 213.5zM236 1042q0 -60 39 -100t102 -41q61 -1 102 40t41 101t-40 100t-103 40q-62 0 -101.5 -39.5t-39.5 -100.5z" />
<glyph unicode="&#xb1;" d="M139 86v201h983v-201h-983zM139 709v202h391v318h201v-318h391v-202h-391v-318h-201v318h-391z" />
<glyph unicode="&#xb2;" horiz-adv-x="798" d="M111 1059q0 139 76 210.5t212 71.5q128 0 199.5 -63.5t71.5 -173.5q0 -75 -36 -140t-118 -135l-104 -94h278v-172h-575v139l260 230q56 50 79 81.5t23 67.5q0 76 -82 76q-44 0 -68 -25.5t-24 -72.5h-192z" />
<glyph unicode="&#xb3;" horiz-adv-x="743" d="M74 776l172 60q15 -57 45.5 -82t81.5 -25q44 0 69 22.5t25 61.5q0 42 -30 66t-83 24h-24l-68 98l148 156h-293v172h510v-172l-144 -162q89 -17 129.5 -74t40.5 -128q0 -99 -75 -170.5t-205 -71.5q-123 0 -200.5 60t-98.5 165z" />
<glyph unicode="&#xb4;" horiz-adv-x="1228" d="M123 1237l469 229l84 -180l-475 -215z" />
<glyph unicode="&#xb5;" horiz-adv-x="1171" d="M143 -258v1231h211v-524q0 -135 68 -206t182 -71q105 0 164 63t59 177v561h211v-594q0 -182 -102 -292t-272 -110q-221 0 -310 162v-397h-211z" />
<glyph unicode="&#xb6;" horiz-adv-x="1308" d="M55 913q0 185 110 300.5t310 115.5h744v-180h-117v-1329h-180v1329h-203v-1329h-197v680h-47q-203 0 -311.5 115t-108.5 298z" />
<glyph unicode="&#xb7;" horiz-adv-x="483" d="M119 455v243h248v-243h-248z" />
<glyph unicode="&#xb8;" horiz-adv-x="1228" d="M113 -416l92 109q20 -23 55.5 -38t71.5 -15q90 0 90 67q0 70 -107 70h-112l67 223h148l-31 -100h16q87 0 142 -51t55 -140q0 -92 -69.5 -150.5t-184.5 -58.5q-146 0 -233 84z" />
<glyph unicode="&#xb9;" horiz-adv-x="575" d="M51 1139v190h395v-766h-219v576h-176z" />
<glyph unicode="&#xba;" horiz-adv-x="829" d="M72 1010q0 139 96 235t246 96q151 0 246.5 -96.5t95.5 -236.5q0 -138 -96 -235t-246 -97q-149 0 -245.5 97.5t-96.5 236.5zM254 1010q0 -67 44.5 -113.5t115.5 -46.5t116 46.5t45 113.5t-45 112t-116 45t-115.5 -45t-44.5 -112z" />
<glyph unicode="&#xbb;" horiz-adv-x="1081" d="M92 121l287 354l-287 356h225l295 -356l-290 -354h-230zM502 121l289 354l-289 356h227l293 -356l-291 -354h-229z" />
<glyph unicode="&#xbc;" horiz-adv-x="1591" d="M55 1139v190h396v-766h-220v576h-176zM326 0l637 1329h184l-635 -1329h-186zM872 158v174l164 434h213l-164 -434h170v186h197v-186h82v-174h-82v-158h-197v158h-383z" />
<glyph unicode="&#xbd;" horiz-adv-x="1587" d="M53 1139v190h396v-766h-220v576h-176zM328 0l635 1329h186l-637 -1329h-184zM936 496q0 138 76.5 210t212.5 72q127 0 197.5 -63t70.5 -172q0 -76 -36 -141t-116 -136l-106 -94h281v-172h-578v141l260 228q55 48 78.5 81t23.5 70q0 74 -79 74q-44 0 -68.5 -25.5 t-24.5 -72.5h-192z" />
<glyph unicode="&#xbe;" horiz-adv-x="1722" d="M59 776l172 60q17 -57 47 -82t80 -25q44 0 69.5 23t25.5 61q0 42 -29.5 66t-81.5 24h-25l-69 98l149 156h-295v172h510v-172l-143 -162q89 -17 130.5 -74.5t41.5 -127.5q0 -98 -76.5 -170t-206.5 -72q-121 0 -199.5 60.5t-99.5 164.5zM461 0l635 1329h184l-635 -1329 h-184zM1006 158v174l163 434h213l-163 -434h170v186h196v-186h82v-174h-82v-158h-196v158h-383z" />
<glyph unicode="&#xbf;" horiz-adv-x="960" d="M68 -14q0 58 17.5 108.5t45 87.5t61 70t67.5 61.5t61.5 55.5t45 59t17.5 66v55h207v-64q0 -63 -31.5 -120t-77 -100t-90.5 -83t-76.5 -86t-31.5 -94q0 -83 53 -129.5t147 -46.5q101 0 157 61t56 174h215q0 -202 -117.5 -320t-314.5 -118q-191 0 -301 101t-110 262z M373 745v228h225v-228h-225z" />
<glyph unicode="&#xc0;" horiz-adv-x="1292" d="M27 0l481 1329h274l484 -1329h-224l-100 279h-580l-98 -279h-237zM367 1632l90 197l467 -230l-84 -182zM436 485h430l-217 596z" />
<glyph unicode="&#xc1;" horiz-adv-x="1292" d="M27 0l481 1329h274l484 -1329h-224l-100 279h-580l-98 -279h-237zM367 1599l469 230l88 -197l-473 -215zM436 485h430l-217 596z" />
<glyph unicode="&#xc2;" horiz-adv-x="1292" d="M27 0l481 1329h274l484 -1329h-224l-100 279h-580l-98 -279h-237zM270 1573l320 244h112l320 -244l-100 -152l-275 203l-274 -203zM436 485h430l-217 596z" />
<glyph unicode="&#xc3;" horiz-adv-x="1292" d="M27 0l481 1329h274l484 -1329h-224l-100 279h-580l-98 -279h-237zM254 1499q0 130 60.5 203.5t174.5 73.5q56 0 112.5 -22t102.5 -44t76 -22q82 0 82 86h176q0 -128 -61 -202.5t-168 -74.5q-59 0 -116 22t-102 44t-75 22q-86 0 -86 -86h-176zM436 485h430l-217 596z" />
<glyph unicode="&#xc4;" horiz-adv-x="1292" d="M27 0l481 1329h274l484 -1329h-224l-100 279h-580l-98 -279h-237zM293 1495v252h256v-252h-256zM436 485h430l-217 596zM743 1495v252h254v-252h-254z" />
<glyph unicode="&#xc5;" horiz-adv-x="1292" d="M27 0l481 1329h274l484 -1329h-224l-100 279h-580l-98 -279h-237zM389 1667q0 103 73 174.5t185 71.5q111 0 183.5 -71.5t72.5 -174.5t-72.5 -174.5t-183.5 -71.5q-112 0 -185 71.5t-73 174.5zM436 485h430l-217 596zM541 1667q0 -43 29 -72.5t77 -29.5q46 0 75.5 30 t29.5 72q0 44 -29.5 74.5t-75.5 30.5q-48 0 -77 -30.5t-29 -74.5z" />
<glyph unicode="&#xc6;" horiz-adv-x="1798" d="M-27 0l815 1329h908v-209h-580v-342h526v-207h-526v-360h586v-211h-805v295h-491l-177 -295h-256zM526 500h371v620z" />
<glyph unicode="&#xc7;" horiz-adv-x="1372" d="M82 666q0 190 85 345.5t241.5 247t355.5 91.5q177 0 324 -79.5t239 -219.5l-188 -117q-63 98 -159 152.5t-216 54.5q-195 0 -327 -139.5t-132 -335.5q0 -129 59 -238t165 -173.5t235 -64.5q120 0 216 54.5t159 152.5l188 -116q-87 -132 -222.5 -210t-299.5 -87l-25 -84 h17q87 0 141.5 -51t54.5 -140q0 -92 -69.5 -150.5t-184.5 -58.5q-146 0 -233 84l92 109q20 -23 55.5 -38t71.5 -15q90 0 90 67q0 70 -106 70h-113l63 211q-259 35 -418 225t-159 453z" />
<glyph unicode="&#xc8;" horiz-adv-x="1064" d="M164 0v1329h799v-209h-580v-342h526v-207h-526v-360h586v-211h-805zM317 1632l91 197l466 -230l-83 -182z" />
<glyph unicode="&#xc9;" horiz-adv-x="1064" d="M164 0v1329h799v-209h-580v-342h526v-207h-526v-360h586v-211h-805zM317 1599l469 230l88 -197l-473 -215z" />
<glyph unicode="&#xca;" horiz-adv-x="1064" d="M164 0v1329h799v-209h-580v-342h526v-207h-526v-360h586v-211h-805zM221 1573l320 244h112l320 -244l-103 -152l-272 203l-274 -203z" />
<glyph unicode="&#xcb;" horiz-adv-x="1064" d="M164 0v1329h799v-209h-580v-342h526v-207h-526v-360h586v-211h-805zM244 1495v252h256v-252h-256zM694 1495v252h254v-252h-254z" />
<glyph unicode="&#xcc;" horiz-adv-x="548" d="M-6 1632l90 197l469 -230l-84 -182zM164 0v1329h221v-1329h-221z" />
<glyph unicode="&#xcd;" horiz-adv-x="548" d="M-6 1599l469 230l90 -197l-475 -215zM164 0v1329h221v-1329h-221z" />
<glyph unicode="&#xce;" horiz-adv-x="548" d="M-100 1573l317 244h115l317 -244l-100 -152l-275 203l-274 -203zM164 0v1329h221v-1329h-221z" />
<glyph unicode="&#xcf;" horiz-adv-x="548" d="M-78 1495v252h256v-252h-256zM164 0v1329h221v-1329h-221zM371 1495v252h256v-252h-256z" />
<glyph unicode="&#xd0;" horiz-adv-x="1425" d="M39 569v193h149v567h492q203 0 354.5 -88.5t229 -237.5t77.5 -337q0 -141 -46 -263t-130 -211.5t-209 -140.5t-276 -51h-492v569h-149zM410 209h270q194 0 315 121.5t121 335.5q0 212 -121 333t-315 121h-270v-358h331v-193h-331v-360z" />
<glyph unicode="&#xd1;" horiz-adv-x="1490" d="M164 0v1329h213l729 -964v964h221v-1329h-209l-733 971v-971h-221zM356 1499q0 129 62 203t176 74q56 0 112.5 -22t102.5 -44t76 -22q82 0 82 86h176q0 -128 -61.5 -202.5t-168.5 -74.5q-59 0 -115.5 22t-101.5 44t-75 22q-86 0 -86 -86h-179z" />
<glyph unicode="&#xd2;" horiz-adv-x="1527" d="M82 664q0 142 52 268.5t142 218.5t217 145.5t271 53.5q141 0 267.5 -53t217.5 -144t144 -218t53 -269q0 -143 -53.5 -270.5t-144.5 -218t-217 -143t-267 -52.5q-187 0 -343.5 88.5t-247.5 245.5t-91 348zM305 662q0 -199 132.5 -335.5t326.5 -136.5t326.5 137.5 t132.5 336.5t-132 338t-327 139q-129 0 -235 -65t-165 -174.5t-59 -239.5zM483 1632l90 197l469 -230l-84 -182z" />
<glyph unicode="&#xd3;" horiz-adv-x="1527" d="M82 664q0 142 52 268.5t142 218.5t217 145.5t271 53.5q141 0 267.5 -53t217.5 -144t144 -218t53 -269q0 -143 -53.5 -270.5t-144.5 -218t-217 -143t-267 -52.5q-187 0 -343.5 88.5t-247.5 245.5t-91 348zM305 662q0 -199 132.5 -335.5t326.5 -136.5t326.5 137.5 t132.5 336.5t-132 338t-327 139q-129 0 -235 -65t-165 -174.5t-59 -239.5zM483 1599l469 230l90 -197l-475 -215z" />
<glyph unicode="&#xd4;" horiz-adv-x="1527" d="M82 664q0 142 52 268.5t142 218.5t217 145.5t271 53.5q141 0 267.5 -53t217.5 -144t144 -218t53 -269q0 -143 -53.5 -270.5t-144.5 -218t-217 -143t-267 -52.5q-187 0 -343.5 88.5t-247.5 245.5t-91 348zM305 662q0 -199 132.5 -335.5t326.5 -136.5t326.5 137.5 t132.5 336.5t-132 338t-327 139q-129 0 -235 -65t-165 -174.5t-59 -239.5zM389 1573l318 244h114l318 -244l-101 -152l-274 203l-275 -203z" />
<glyph unicode="&#xd5;" horiz-adv-x="1527" d="M82 664q0 142 52 268.5t142 218.5t217 145.5t271 53.5q141 0 267.5 -53t217.5 -144t144 -218t53 -269q0 -143 -53.5 -270.5t-144.5 -218t-217 -143t-267 -52.5q-187 0 -343.5 88.5t-247.5 245.5t-91 348zM305 662q0 -199 132.5 -335.5t326.5 -136.5t326.5 137.5 t132.5 336.5t-132 338t-327 139q-129 0 -235 -65t-165 -174.5t-59 -239.5zM371 1499q0 129 61 203t174 74q56 0 112.5 -22t103 -44t77.5 -22q82 0 82 86h176q0 -128 -61 -202.5t-168 -74.5q-59 0 -116 22t-102 44t-75 22q-88 0 -88 -86h-176z" />
<glyph unicode="&#xd6;" horiz-adv-x="1527" d="M82 664q0 142 52 268.5t142 218.5t217 145.5t271 53.5q141 0 267.5 -53t217.5 -144t144 -218t53 -269q0 -143 -53.5 -270.5t-144.5 -218t-217 -143t-267 -52.5q-187 0 -343.5 88.5t-247.5 245.5t-91 348zM305 662q0 -199 132.5 -335.5t326.5 -136.5t326.5 137.5 t132.5 336.5t-132 338t-327 139q-129 0 -235 -65t-165 -174.5t-59 -239.5zM412 1495v252h254v-252h-254zM860 1495v252h256v-252h-256z" />
<glyph unicode="&#xd7;" d="M186 324l301 301l-301 301l142 145l303 -303l301 303l143 -145l-301 -301l301 -301l-143 -144l-301 301l-303 -301z" />
<glyph unicode="&#xd8;" horiz-adv-x="1558" d="M61 96l164 164q-127 176 -127 404q0 142 52.5 268.5t142.5 218.5t217 145.5t270 53.5q230 0 408 -129l151 151l150 -151l-152 -152q127 -179 127 -403q0 -143 -53.5 -270.5t-144.5 -218t-217.5 -143t-268.5 -52.5q-227 0 -405 129l-164 -164zM324 662q0 -133 61 -242 l647 645q-116 76 -252 76q-195 0 -325.5 -140t-130.5 -339zM530 264q110 -74 250 -74q195 0 327 137.5t132 336.5q0 134 -63 245z" />
<glyph unicode="&#xd9;" horiz-adv-x="1427" d="M150 543v786h221v-778q0 -183 91 -272t251 -89t251 89t91 272v778h223v-786q0 -273 -153 -417t-412 -144q-258 0 -410.5 144t-152.5 417zM434 1632l88 197l469 -230l-84 -182z" />
<glyph unicode="&#xda;" horiz-adv-x="1427" d="M150 543v786h221v-778q0 -183 91 -272t251 -89t251 89t91 272v778h223v-786q0 -273 -153 -417t-412 -144q-258 0 -410.5 144t-152.5 417zM434 1599l467 230l90 -197l-473 -215z" />
<glyph unicode="&#xdb;" horiz-adv-x="1427" d="M150 543v786h221v-778q0 -183 91 -272t251 -89t251 89t91 272v778h223v-786q0 -273 -153 -417t-412 -144q-258 0 -410.5 144t-152.5 417zM338 1573l319 244h113l320 -244l-103 -152l-274 203l-275 -203z" />
<glyph unicode="&#xdc;" horiz-adv-x="1427" d="M150 543v786h221v-778q0 -183 91 -272t251 -89t251 89t91 272v778h223v-786q0 -273 -153 -417t-412 -144q-258 0 -410.5 144t-152.5 417zM360 1495v252h256v-252h-256zM809 1495v252h256v-252h-256z" />
<glyph unicode="&#xdd;" horiz-adv-x="1302" d="M27 1329h258l368 -594l369 594h252l-510 -794v-535h-223v535zM369 1599l469 230l90 -197l-475 -215z" />
<glyph unicode="&#xde;" horiz-adv-x="1140" d="M164 0v1329h219v-223h225q198 0 328.5 -126.5t130.5 -311.5q0 -186 -129 -312.5t-330 -126.5h-225v-229h-219zM383 436h225q108 0 175 66t67 166q0 101 -66.5 166t-175.5 65h-225v-463z" />
<glyph unicode="&#xdf;" horiz-adv-x="1140" d="M143 0v944q0 100 27.5 182.5t80.5 145t138.5 97t194.5 34.5q190 0 302.5 -103.5t112.5 -267.5q0 -111 -52.5 -190.5t-137.5 -120.5q116 -35 186 -122t70 -212q0 -188 -132 -287.5t-353 -99.5h-88v201h81q142 0 213.5 55t71.5 158q0 93 -69 148.5t-197 55.5h-100v193h69 q110 0 171 53.5t61 151.5q0 82 -55 135t-154 53q-113 0 -171.5 -68.5t-58.5 -189.5v-946h-211z" />
<glyph unicode="&#xe0;" horiz-adv-x="1239" d="M74 481q0 109 42 206t109.5 162.5t153 103.5t172.5 38q232 0 332 -168v150h213v-973h-217v135q-114 -153 -328 -153q-86 0 -171 36.5t-153 100t-110.5 159t-42.5 203.5zM283 481q0 -122 89 -210.5t214 -88.5q127 0 217 89t90 212q0 128 -90 218t-217 90 q-126 0 -214.5 -90.5t-88.5 -219.5zM328 1286l84 180l469 -229l-78 -166z" />
<glyph unicode="&#xe1;" horiz-adv-x="1239" d="M74 481q0 109 42 206t109.5 162.5t153 103.5t172.5 38q232 0 332 -168v150h213v-973h-217v135q-114 -153 -328 -153q-86 0 -171 36.5t-153 100t-110.5 159t-42.5 203.5zM283 481q0 -122 89 -210.5t214 -88.5q127 0 217 89t90 212q0 128 -90 218t-217 90 q-126 0 -214.5 -90.5t-88.5 -219.5zM328 1237l469 229l84 -180l-475 -215z" />
<glyph unicode="&#xe2;" horiz-adv-x="1239" d="M74 481q0 109 42 206t109.5 162.5t153 103.5t172.5 38q232 0 332 -168v150h213v-973h-217v135q-114 -153 -328 -153q-86 0 -171 36.5t-153 100t-110.5 159t-42.5 203.5zM229 1223l318 243h115l317 -243l-100 -152l-275 203l-274 -203zM283 481q0 -122 89 -210.5 t214 -88.5q127 0 217 89t90 212q0 128 -90 218t-217 90q-126 0 -214.5 -90.5t-88.5 -219.5z" />
<glyph unicode="&#xe3;" horiz-adv-x="1239" d="M74 481q0 109 42 206t109.5 162.5t153 103.5t172.5 38q232 0 332 -168v150h213v-973h-217v135q-114 -153 -328 -153q-86 0 -171 36.5t-153 100t-110.5 159t-42.5 203.5zM211 1135q0 129 61 203.5t174 74.5q56 0 113 -23.5t103.5 -47t76.5 -23.5q45 0 67.5 21.5t22.5 70.5 h168q0 -128 -61 -203t-168 -75q-59 0 -116 24t-102 48t-75 24q-94 0 -94 -94h-170zM283 481q0 -122 89 -210.5t214 -88.5q127 0 217 89t90 212q0 128 -90 218t-217 90q-126 0 -214.5 -90.5t-88.5 -219.5z" />
<glyph unicode="&#xe4;" horiz-adv-x="1239" d="M74 481q0 109 42 206t109.5 162.5t153 103.5t172.5 38q232 0 332 -168v150h213v-973h-217v135q-114 -153 -328 -153q-86 0 -171 36.5t-153 100t-110.5 159t-42.5 203.5zM272 1151v231h232v-231h-232zM283 481q0 -122 89 -210.5t214 -88.5q127 0 217 89t90 212 q0 128 -90 218t-217 90q-126 0 -214.5 -90.5t-88.5 -219.5zM707 1151v231h231v-231h-231z" />
<glyph unicode="&#xe5;" horiz-adv-x="1239" d="M74 481q0 109 42 206t109.5 162.5t153 103.5t172.5 38q232 0 332 -168v150h213v-973h-217v135q-114 -153 -328 -153q-86 0 -171 36.5t-153 100t-110.5 159t-42.5 203.5zM283 481q0 -122 89 -210.5t214 -88.5q127 0 217 89t90 212q0 128 -90 218t-217 90 q-126 0 -214.5 -90.5t-88.5 -219.5zM358 1300q0 98 70 167t176 69q107 0 177.5 -69t70.5 -167q0 -99 -70 -167t-178 -68q-106 0 -176 68t-70 167zM500 1300q0 -44 29 -74t75 -30t76.5 30t30.5 74q0 43 -30 73t-77 30q-46 0 -75 -29.5t-29 -73.5z" />
<glyph unicode="&#xe6;" horiz-adv-x="1949" d="M74 481q0 109 42 206t109.5 162.5t153 103.5t172.5 38q232 0 332 -168v150h213v-92q126 110 305 110q141 0 252.5 -68t171 -181t59.5 -248q0 -36 -6 -70h-778q19 -111 101.5 -180.5t205.5 -69.5q80 0 151.5 31t114.5 90l146 -115q-66 -94 -171.5 -146t-232.5 -52 q-187 0 -319 116v-98h-217v135q-114 -153 -328 -153q-86 0 -171 36.5t-153 100t-110.5 159t-42.5 203.5zM283 481q0 -122 89 -210.5t214 -88.5q127 0 217 89t90 212q0 128 -90 218t-217 90q-126 0 -214.5 -90.5t-88.5 -219.5zM1106 573h565q-10 98 -90 162t-188 64 q-104 0 -183 -63t-104 -163z" />
<glyph unicode="&#xe7;" horiz-adv-x="1067" d="M74 487q0 138 68 254.5t186 184t258 67.5q134 0 248 -61.5t186 -167.5l-180 -105q-42 62 -108.5 97t-145.5 35q-127 0 -216 -89.5t-89 -214.5t89 -215t216 -90q82 0 150 37.5t110 104.5l178 -107q-59 -92 -151.5 -152t-204.5 -77l-27 -88h18q86 0 141.5 -51.5 t55.5 -139.5q0 -92 -69.5 -150.5t-186.5 -58.5q-143 0 -233 84l92 109q22 -23 57 -38t70 -15q45 0 68.5 18t23.5 49q0 70 -109 70h-110l63 209q-191 23 -319.5 165.5t-128.5 335.5z" />
<glyph unicode="&#xe8;" horiz-adv-x="1130" d="M74 485q0 137 61.5 252t177.5 184.5t262 69.5q209 0 349.5 -146t140.5 -351q0 -36 -6 -70h-778q19 -111 101.5 -180.5t205.5 -69.5q80 0 151 31t115 90l145 -115q-66 -93 -174.5 -145.5t-234.5 -52.5q-143 0 -261.5 66t-186.5 181.5t-68 255.5zM289 584h561 q-13 93 -92 154t-185 61q-102 0 -179 -59t-105 -156zM293 1286l84 180l469 -229l-78 -166z" />
<glyph unicode="&#xe9;" horiz-adv-x="1130" d="M74 485q0 137 61.5 252t177.5 184.5t262 69.5q209 0 349.5 -146t140.5 -351q0 -36 -6 -70h-778q19 -111 101.5 -180.5t205.5 -69.5q80 0 151 31t115 90l145 -115q-66 -93 -174.5 -145.5t-234.5 -52.5q-143 0 -261.5 66t-186.5 181.5t-68 255.5zM289 584h561 q-13 93 -92 154t-185 61q-102 0 -179 -59t-105 -156zM293 1237l469 229l84 -180l-475 -215z" />
<glyph unicode="&#xea;" horiz-adv-x="1130" d="M74 485q0 137 61.5 252t177.5 184.5t262 69.5q209 0 349.5 -146t140.5 -351q0 -36 -6 -70h-778q19 -111 101.5 -180.5t205.5 -69.5q80 0 151 31t115 90l145 -115q-66 -93 -174.5 -145.5t-234.5 -52.5q-143 0 -261.5 66t-186.5 181.5t-68 255.5zM195 1223l319 243h113 l317 -243l-100 -152l-275 203l-274 -203zM289 584h561q-13 93 -92 154t-185 61q-102 0 -179 -59t-105 -156z" />
<glyph unicode="&#xeb;" horiz-adv-x="1130" d="M74 485q0 137 61.5 252t177.5 184.5t262 69.5q209 0 349.5 -146t140.5 -351q0 -36 -6 -70h-778q19 -111 101.5 -180.5t205.5 -69.5q80 0 151 31t115 90l145 -115q-66 -93 -174.5 -145.5t-234.5 -52.5q-143 0 -261.5 66t-186.5 181.5t-68 255.5zM238 1151v231h231v-231 h-231zM289 584h561q-13 93 -92 154t-185 61q-102 0 -179 -59t-105 -156zM672 1151v231h231v-231h-231z" />
<glyph unicode="&#xec;" horiz-adv-x="503" d="M-25 1286l84 180l469 -229l-77 -166zM143 0v973h217v-973h-217z" />
<glyph unicode="&#xed;" horiz-adv-x="503" d="M-25 1237l469 229l84 -180l-475 -215zM143 0v973h217v-973h-217z" />
<glyph unicode="&#xee;" horiz-adv-x="503" d="M-123 1223l320 243h112l320 -243l-103 -152l-274 203l-275 -203zM143 0v973h217v-973h-217z" />
<glyph unicode="&#xef;" horiz-adv-x="503" d="M-80 1151v231h232v-231h-232zM143 0v973h217v-973h-217zM354 1151v231h232v-231h-232z" />
<glyph unicode="&#xf0;" horiz-adv-x="1179" d="M74 467q0 132 67.5 243.5t183.5 176.5t253 65q157 0 247 -104q-47 170 -194 278l-76 -122l-154 86l72 116q-83 25 -166 25v172q140 0 262 -39l76 123l154 -82l-70 -115q176 -111 265 -311.5t89 -441.5q0 -135 -39 -242t-108 -174.5t-160 -103t-198 -35.5 q-207 0 -355.5 143t-148.5 342zM283 467q0 -118 86.5 -205.5t208.5 -87.5q124 0 211.5 87t87.5 206t-87.5 206t-211.5 87q-123 0 -209 -87t-86 -206z" />
<glyph unicode="&#xf1;" horiz-adv-x="1175" d="M143 0v973h213v-144q89 162 306 162q170 0 276 -101.5t106 -279.5v-610h-217v537q0 120 -59.5 187t-163.5 67t-174 -68t-70 -195v-528h-217zM199 1135q0 129 61.5 203.5t175.5 74.5q56 0 112.5 -23.5t102.5 -47t76 -23.5q46 0 68 21t22 71h168q0 -128 -61 -203t-168 -75 q-59 0 -116 24t-102 48t-75 24q-94 0 -94 -94h-170z" />
<glyph unicode="&#xf2;" horiz-adv-x="1175" d="M74 485q0 137 68 253.5t186 184.5t258 68q142 0 261 -68t187 -184t68 -254q0 -101 -40.5 -194t-109.5 -160.5t-164.5 -108t-201.5 -40.5q-139 0 -257 68t-186.5 184t-68.5 251zM281 485q0 -121 90 -212t215 -91q128 0 218.5 91t90.5 212q0 122 -90.5 214t-218.5 92 q-126 0 -215.5 -92t-89.5 -214zM311 1286l84 180l469 -229l-78 -166z" />
<glyph unicode="&#xf3;" horiz-adv-x="1175" d="M74 485q0 137 68 253.5t186 184.5t258 68q142 0 261 -68t187 -184t68 -254q0 -101 -40.5 -194t-109.5 -160.5t-164.5 -108t-201.5 -40.5q-139 0 -257 68t-186.5 184t-68.5 251zM281 485q0 -121 90 -212t215 -91q128 0 218.5 91t90.5 212q0 122 -90.5 214t-218.5 92 q-126 0 -215.5 -92t-89.5 -214zM311 1237l469 229l84 -180l-475 -215z" />
<glyph unicode="&#xf4;" horiz-adv-x="1175" d="M74 485q0 137 68 253.5t186 184.5t258 68q142 0 261 -68t187 -184t68 -254q0 -101 -40.5 -194t-109.5 -160.5t-164.5 -108t-201.5 -40.5q-139 0 -257 68t-186.5 184t-68.5 251zM213 1223l319 243h113l318 -243l-101 -152l-274 203l-275 -203zM281 485q0 -121 90 -212 t215 -91q128 0 218.5 91t90.5 212q0 122 -90.5 214t-218.5 92q-126 0 -215.5 -92t-89.5 -214z" />
<glyph unicode="&#xf5;" horiz-adv-x="1175" d="M74 485q0 137 68 253.5t186 184.5t258 68q142 0 261 -68t187 -184t68 -254q0 -101 -40.5 -194t-109.5 -160.5t-164.5 -108t-201.5 -40.5q-139 0 -257 68t-186.5 184t-68.5 251zM195 1135q0 129 61 203.5t174 74.5q56 0 113 -23.5t103.5 -47t76.5 -23.5q46 0 68 21t22 71 h168q0 -128 -61 -203t-168 -75q-59 0 -116 24t-102 48t-75 24q-94 0 -94 -94h-170zM281 485q0 -121 90 -212t215 -91q128 0 218.5 91t90.5 212q0 122 -90.5 214t-218.5 92q-126 0 -215.5 -92t-89.5 -214z" />
<glyph unicode="&#xf6;" horiz-adv-x="1175" d="M74 485q0 137 68 253.5t186 184.5t258 68q142 0 261 -68t187 -184t68 -254q0 -101 -40.5 -194t-109.5 -160.5t-164.5 -108t-201.5 -40.5q-139 0 -257 68t-186.5 184t-68.5 251zM256 1151v231h231v-231h-231zM281 485q0 -121 90 -212t215 -91q128 0 218.5 91t90.5 212 q0 122 -90.5 214t-218.5 92q-126 0 -215.5 -92t-89.5 -214zM690 1151v231h232v-231h-232z" />
<glyph unicode="&#xf7;" d="M139 526v201h983v-201h-983zM487 264q0 58 39.5 96.5t98.5 38.5q57 0 96 -38.5t39 -96.5q0 -60 -39 -99.5t-96 -39.5q-59 0 -98.5 39.5t-39.5 99.5zM487 991q0 58 39.5 97.5t98.5 39.5q57 0 96 -39.5t39 -97.5q0 -59 -39 -98t-96 -39q-59 0 -98.5 38.5t-39.5 98.5z" />
<glyph unicode="&#xf8;" horiz-adv-x="1212" d="M55 68l129 129q-92 132 -92 288q0 137 68 253.5t186 184.5t258 68q161 0 289 -86l133 133l133 -133l-131 -131q92 -128 92 -289q0 -101 -40.5 -194t-109.5 -160.5t-164.5 -108t-201.5 -40.5q-157 0 -282 86l-134 -134zM299 485q0 -74 35 -139l409 410q-62 35 -139 35 q-126 0 -215.5 -92t-89.5 -214zM469 215q68 -33 135 -33q128 0 218.5 91t90.5 212q0 76 -34 140z" />
<glyph unicode="&#xf9;" horiz-adv-x="1171" d="M131 379v594h211v-561q0 -114 59.5 -177t165.5 -63q114 0 182 71t68 206v524h211v-973h-211v139q-89 -162 -309 -162q-170 0 -273.5 110t-103.5 292zM309 1286l84 180l469 -229l-78 -166z" />
<glyph unicode="&#xfa;" horiz-adv-x="1171" d="M131 379v594h211v-561q0 -114 59.5 -177t165.5 -63q114 0 182 71t68 206v524h211v-973h-211v139q-89 -162 -309 -162q-170 0 -273.5 110t-103.5 292zM309 1237l469 229l84 -180l-475 -215z" />
<glyph unicode="&#xfb;" horiz-adv-x="1171" d="M131 379v594h211v-561q0 -114 59.5 -177t165.5 -63q114 0 182 71t68 206v524h211v-973h-211v139q-89 -162 -309 -162q-170 0 -273.5 110t-103.5 292zM211 1223l319 243h113l320 -243l-101 -152l-274 203l-275 -203z" />
<glyph unicode="&#xfc;" horiz-adv-x="1171" d="M131 379v594h211v-561q0 -114 59.5 -177t165.5 -63q114 0 182 71t68 206v524h211v-973h-211v139q-89 -162 -309 -162q-170 0 -273.5 110t-103.5 292zM254 1151v231h231v-231h-231zM688 1151v231h232v-231h-232z" />
<glyph unicode="&#xfd;" horiz-adv-x="1095" d="M16 973h244l299 -709l268 709h246l-610 -1424h-219l207 455zM268 1237l469 229l84 -180l-475 -215z" />
<glyph unicode="&#xfe;" horiz-adv-x="1245" d="M143 -451v1833h211v-548q33 55 90.5 92t114 51t113.5 14q139 0 254 -69.5t180 -187t65 -255.5q0 -133 -66 -247.5t-182 -182t-255 -67.5q-192 0 -314 139v-572h-211zM354 479q0 -128 89 -212.5t219 -84.5q126 0 214.5 89t88.5 208q0 126 -88.5 219t-214.5 93 q-130 0 -219 -89t-89 -223z" />
<glyph unicode="&#xff;" horiz-adv-x="1095" d="M16 973h244l299 -709l268 709h246l-610 -1424h-219l207 455zM213 1151v231h231v-231h-231zM647 1151v231h232v-231h-232z" />
<glyph unicode="&#x152;" horiz-adv-x="2125" d="M82 664q0 142 52 268.5t142 218.5t217 145.5t271 53.5q268 0 461 -174v153h800v-209h-581v-342h526v-207h-526v-360h588v-211h-807v156q-92 -83 -210.5 -128.5t-250.5 -45.5q-187 0 -343.5 88.5t-247.5 245.5t-91 348zM305 662q0 -199 132.5 -335.5t326.5 -136.5 t326.5 137.5t132.5 336.5t-132 338t-327 139q-129 0 -235 -65t-165 -174.5t-59 -239.5z" />
<glyph unicode="&#x153;" horiz-adv-x="1951" d="M74 485q0 137 68 253.5t186 184.5t258 68q124 0 230.5 -52.5t178.5 -143.5q66 92 170 144t232 52q138 0 251 -68t175.5 -181.5t62.5 -247.5q0 -36 -6 -70h-778q19 -111 101.5 -180.5t205.5 -69.5q80 0 151 31t115 90l146 -115q-66 -93 -174.5 -145.5t-235.5 -52.5 t-235.5 53t-180.5 145q-72 -92 -178.5 -145t-230.5 -53q-139 0 -257 68t-186.5 184t-68.5 251zM281 485q0 -121 90 -212t215 -91q128 0 218.5 91t90.5 212q0 122 -90.5 214t-218.5 92q-126 0 -215.5 -92t-89.5 -214zM1110 584h561q-13 94 -91.5 154.5t-184.5 60.5 q-102 0 -179.5 -59t-105.5 -156z" />
<glyph unicode="&#x178;" horiz-adv-x="1302" d="M27 1329h258l368 -594l369 594h252l-510 -794v-535h-223v535zM297 1495v252h256v-252h-256zM745 1495v252h256v-252h-256z" />
<glyph unicode="&#x2c6;" horiz-adv-x="1228" d="M123 1223l319 243h113l319 -243l-102 -152l-274 203l-275 -203z" />
<glyph unicode="&#x2dc;" horiz-adv-x="1228" d="M123 1135q0 129 61 203.5t174 74.5q56 0 112.5 -23.5t103 -47t77.5 -23.5q44 0 66 21.5t22 70.5h170q0 -128 -61 -203t-168 -75q-59 0 -116 24t-102 48t-75 24q-96 0 -96 -94h-168z" />
<glyph unicode="&#x2000;" horiz-adv-x="956" />
<glyph unicode="&#x2001;" horiz-adv-x="1913" />
<glyph unicode="&#x2002;" horiz-adv-x="956" />
<glyph unicode="&#x2003;" horiz-adv-x="1913" />
<glyph unicode="&#x2004;" horiz-adv-x="637" />
<glyph unicode="&#x2005;" horiz-adv-x="478" />
<glyph unicode="&#x2006;" horiz-adv-x="318" />
<glyph unicode="&#x2007;" horiz-adv-x="318" />
<glyph unicode="&#x2008;" horiz-adv-x="239" />
<glyph unicode="&#x2009;" horiz-adv-x="382" />
<glyph unicode="&#x200a;" horiz-adv-x="106" />
<glyph unicode="&#x2010;" horiz-adv-x="841" d="M117 469v199h606v-199h-606z" />
<glyph unicode="&#x2011;" horiz-adv-x="841" d="M117 469v199h606v-199h-606z" />
<glyph unicode="&#x2012;" horiz-adv-x="841" d="M117 469v199h606v-199h-606z" />
<glyph unicode="&#x2013;" horiz-adv-x="1183" d="M117 469v199h948v-199h-948z" />
<glyph unicode="&#x2014;" horiz-adv-x="1660" d="M117 469v199h1425v-199h-1425z" />
<glyph unicode="&#x2018;" horiz-adv-x="434" d="M76 977l129 391h151l-63 -391h-217z" />
<glyph unicode="&#x2019;" horiz-adv-x="421" d="M92 956l64 394h217l-129 -394h-152z" />
<glyph unicode="&#x201a;" horiz-adv-x="444" d="M68 -158l65 391h217l-129 -391h-153z" />
<glyph unicode="&#x201c;" horiz-adv-x="759" d="M80 956l129 394h151l-65 -394h-215zM401 956l129 394h152l-64 -394h-217z" />
<glyph unicode="&#x201d;" horiz-adv-x="743" d="M92 956l64 394h217l-129 -394h-152zM414 956l63 394h217l-129 -394h-151z" />
<glyph unicode="&#x201e;" horiz-adv-x="765" d="M68 -158l65 391h217l-129 -391h-153zM391 -158l64 391h217l-129 -391h-152z" />
<glyph unicode="&#x2022;" horiz-adv-x="790" d="M164 399v455h463v-455h-463z" />
<glyph unicode="&#x2026;" horiz-adv-x="1337" d="M117 0v242h248v-242h-248zM545 0v242h248v-242h-248zM975 0v242h248v-242h-248z" />
<glyph unicode="&#x202f;" horiz-adv-x="382" />
<glyph unicode="&#x2039;" horiz-adv-x="669" d="M59 475l293 356h228l-289 -356l289 -354h-230z" />
<glyph unicode="&#x203a;" horiz-adv-x="669" d="M92 121l287 354l-287 356h225l295 -356l-290 -354h-230z" />
<glyph unicode="&#x205f;" horiz-adv-x="478" />
<glyph unicode="&#x20ac;" horiz-adv-x="1277" d="M55 432l51 162h138q-2 23 -2 72q0 35 2 53h-152l51 162h123q51 220 206 344.5t384 124.5q105 0 187.5 -21.5t166.5 -73.5l-94 -184q-118 70 -260 70q-134 0 -226 -68t-134 -192h516l-54 -162h-493q-2 -16 -2 -53q0 -26 4 -72h461l-54 -162h-372q43 -115 134 -178.5 t220 -63.5q146 0 260 70l94 -186q-83 -52 -165 -72t-189 -20q-222 0 -376 119.5t-210 330.5h-215z" />
<glyph unicode="&#x2122;" horiz-adv-x="1581" d="M59 1184v145h574v-145h-203v-486h-164v486h-207zM735 698l2 631h221l132 -452l131 452h221l2 -631h-152v422h-6l-121 -422h-151l-121 422h-6v-422h-152z" />
<glyph unicode="&#x25fc;" horiz-adv-x="972" d="M0 0v973h973v-973h-973z" />
</font>
</defs>
</svg>
