<?xml version="1.0" standalone="no"?>
<!DOCTYPE svg PUBLIC "-//W3C//DTD SVG 1.1//EN" "http://www.w3.org/Graphics/SVG/1.1/DTD/svg11.dtd" >
<svg xmlns="http://www.w3.org/2000/svg" xmlns:xlink="http://www.w3.org/1999/xlink" version="1.1">
<metadata></metadata>
<defs>
<font id="f37_moonextra_bold" horiz-adv-x="1261" >
<font-face units-per-em="2048" ascent="1638" descent="-410" />
<missing-glyph horiz-adv-x="415" />
<glyph unicode="&#xfb01;" horiz-adv-x="1310" d="M70 692v281h137v26q0 193 113 298.5t323 105.5q51 0 98 -6v-273q-23 2 -51 2q-84 0 -124 -29t-40 -98v-26h662v-973h-320v692h-342v-692h-319v692h-137zM868 1126v306h320v-306h-320z" />
<glyph unicode="&#xfb02;" horiz-adv-x="1308" d="M70 692v281h137v26q0 193 113 298.5t323 105.5q51 0 98 -6v-273q-23 2 -51 2q-84 0 -124 -29t-40 -98v-26h340v409h320v-1382h-320v692h-340v-692h-319v692h-137z" />
<glyph horiz-adv-x="0" />
<glyph horiz-adv-x="682" />
<glyph unicode=" "  horiz-adv-x="415" />
<glyph unicode="&#x09;" horiz-adv-x="415" />
<glyph unicode="&#xa0;" horiz-adv-x="415" />
<glyph unicode="!" horiz-adv-x="557" d="M123 944v385h311v-385l-69 -485h-170zM127 0v293h305v-293h-305z" />
<glyph unicode="&#x22;" horiz-adv-x="831" d="M78 1350h295l-41 -457h-215zM461 1350h293l-39 -457h-215z" />
<glyph unicode="#" horiz-adv-x="1159" d="M76 342v240h174l37 180h-131v239h182l45 220h225l-45 -220h174l45 220h226l-45 -220h118v-239h-170l-37 -180h127v-240h-178l-45 -219h-225l45 219h-174l-45 -219h-225l45 219h-123zM475 582h174l37 180h-174z" />
<glyph unicode="$" horiz-adv-x="1181" d="M47 217l209 197q134 -162 344 -162q97 0 151 32.5t54 90.5q0 50 -38.5 85.5t-100 58.5t-135.5 44.5t-148 52t-135.5 73t-100 115.5t-38.5 171q0 147 98.5 242t267.5 122v224h258v-224q229 -41 369 -202l-199 -197q-59 67 -137.5 104t-163.5 37q-89 0 -136.5 -28.5 t-47.5 -81.5q0 -41 38.5 -71.5t100 -51.5t135.5 -43t148 -55t135.5 -77t100 -119t38.5 -173q0 -155 -104 -257t-277 -132v-223h-258v219q-265 34 -428 229z" />
<glyph unicode="%" horiz-adv-x="1835" d="M51 961q0 166 102.5 272t260.5 106q160 0 262 -106t102 -272q0 -165 -102.5 -271t-261.5 -106q-158 0 -260.5 106.5t-102.5 270.5zM264 961q0 -77 43 -126.5t107 -48.5q66 0 107.5 49t41.5 126q0 78 -41.5 127t-107.5 49q-65 0 -107.5 -49.5t-42.5 -126.5zM492 0 l598 1329h251l-596 -1329h-253zM1057 371q0 165 102 272t260 107q159 0 262 -107t103 -272q0 -164 -102.5 -270.5t-262.5 -106.5q-158 0 -260 106.5t-102 270.5zM1270 371q0 -78 42 -127t107 -47q66 -1 108 47.5t42 126.5t-42 127t-108 49q-65 0 -107 -49t-42 -127z" />
<glyph unicode="&#x26;" horiz-adv-x="1292" d="M78 362q0 122 54.5 203t154.5 117q-176 86 -176 293q0 174 131.5 274.5t384.5 100.5q69 0 149 -9v-270q-55 8 -147 8q-105 0 -156 -36.5t-51 -100.5q0 -129 168 -129h186v123h291v-123h150v-260h-150v-285h150v-268h-660q-216 0 -347.5 98.5t-131.5 263.5zM389 408 q0 -68 51 -104t138 -36h198v285h-186q-95 0 -148 -37t-53 -108z" />
<glyph unicode="'" horiz-adv-x="450" d="M78 1350h295l-41 -457h-215z" />
<glyph unicode="(" horiz-adv-x="729" d="M66 512q0 271 119 488t356 366l170 -217q-169 -135 -248.5 -284t-79.5 -353q0 -206 79.5 -353.5t248.5 -283.5l-170 -217q-237 148 -356 365t-119 489z" />
<glyph unicode=")" horiz-adv-x="729" d="M18 -125q170 135 249 283t79 354q0 205 -79.5 353.5t-248.5 283.5l170 217q237 -149 356.5 -366t119.5 -488t-119.5 -488.5t-356.5 -365.5z" />
<glyph unicode="*" horiz-adv-x="778" d="M63 963l173 59l-173 61l111 191l139 -121l-34 182h221l-35 -182l139 121l111 -191l-172 -61l172 -59l-111 -193l-139 119l35 -178h-221l34 178l-139 -119z" />
<glyph unicode="+" d="M115 496v270h381v381h270v-381h381v-270h-381v-379h-270v379h-381z" />
<glyph unicode="," horiz-adv-x="495" d="M70 -170l47 479h299l-125 -479h-221z" />
<glyph unicode="-" horiz-adv-x="860" d="M106 446v267h648v-267h-648z" />
<glyph unicode="." horiz-adv-x="536" d="M102 0v315h332v-315h-332z" />
<glyph unicode="/" horiz-adv-x="798" d="M41 0l434 1329h283l-439 -1329h-278z" />
<glyph unicode="0" horiz-adv-x="1241" d="M100 463v397q0 218 142 354t379 136t378.5 -136t141.5 -354v-397q0 -212 -142 -346.5t-378 -134.5t-378.5 134.5t-142.5 346.5zM426 494q0 -101 52.5 -155t142.5 -54t142 54t52 155v335q0 106 -52 162t-142 56t-142.5 -56t-52.5 -162v-335z" />
<glyph unicode="1" horiz-adv-x="753" d="M63 1028v301h545v-1329h-338v1028h-207z" />
<glyph unicode="2" horiz-adv-x="1126" d="M84 0v242l485 477q66 64 96.5 110t30.5 103q0 60 -39 95.5t-106 35.5q-73 0 -113.5 -46.5t-40.5 -125.5h-311q0 209 125 334t344 125q211 0 332 -112t121 -304q0 -112 -53 -204t-175 -208l-229 -227h485v-295h-952z" />
<glyph unicode="3" horiz-adv-x="1099" d="M41 268l252 142q62 -160 231 -160q88 0 139.5 43t51.5 115q0 79 -54 123t-151 44h-90l-98 166l256 316h-459v272h839v-229l-268 -320q157 -34 242.5 -131.5t85.5 -242.5q0 -192 -134 -308t-360 -116q-170 0 -296.5 72.5t-186.5 213.5z" />
<glyph unicode="4" horiz-adv-x="1234" d="M49 250v201l379 878h334l-348 -799h286v304h314v-304h170v-280h-170v-250h-314v250h-651z" />
<glyph unicode="5" horiz-adv-x="1120" d="M59 274l258 148q62 -162 232 -162q85 0 134.5 43t49.5 115q0 78 -52 124t-146 46h-406l43 741h795v-280h-508l-13 -199h132q208 0 338.5 -115t130.5 -317q0 -198 -137.5 -317t-360.5 -119q-172 0 -301 73t-189 219z" />
<glyph unicode="6" horiz-adv-x="1159" d="M74 463q0 179 149 401l299 465h357l-289 -440q28 12 78 12q117 0 218.5 -57.5t162.5 -159.5t61 -223q0 -138 -68.5 -248t-187.5 -170.5t-264 -60.5q-143 0 -260.5 60t-186.5 171t-69 250zM387 455q0 -85 57.5 -140t145.5 -55q89 0 148 55t59 140q0 82 -61 138t-146 56 t-144 -55.5t-59 -138.5z" />
<glyph unicode="7" horiz-adv-x="1083" d="M53 1034v295h979v-252l-532 -1077h-355l529 1034h-621z" />
<glyph unicode="8" horiz-adv-x="1200" d="M76 414q0 119 55.5 205.5t151.5 134.5q-123 86 -123 243q0 153 119 253t321 100t321 -100t119 -253q0 -157 -122 -243q96 -47 150 -134t54 -206q0 -185 -148 -308.5t-374 -123.5q-228 0 -376 123.5t-148 308.5zM391 436q0 -81 58 -131.5t151 -50.5t151 50.5t58 131.5 q0 75 -59 127.5t-150 52.5t-150 -52.5t-59 -127.5zM461 975q0 -55 39.5 -89t99.5 -34t99.5 34t39.5 89q0 51 -40 86t-99 35t-99 -35t-40 -86z" />
<glyph unicode="9" horiz-adv-x="1159" d="M51 868q0 138 68.5 248t187 171t262.5 61q143 0 261 -60.5t187.5 -171.5t69.5 -250q0 -61 -14.5 -122t-43.5 -119t-45.5 -86t-45.5 -74l-301 -465h-354l288 440q-28 -12 -77 -12q-118 0 -219.5 57.5t-162.5 159.5t-61 223zM365 874q0 -82 60 -138t144 -56 q86 0 145.5 55.5t59.5 138.5q0 84 -58.5 139.5t-146.5 55.5t-146 -55t-58 -140z" />
<glyph unicode=":" horiz-adv-x="542" d="M106 0v315h330v-315h-330zM106 643v315h330v-315h-330z" />
<glyph unicode=";" horiz-adv-x="561" d="M94 -170l47 479h299l-125 -479h-221zM125 643v315h330v-315h-330z" />
<glyph unicode="&#x3c;" d="M240 649l569 588l192 -188l-397 -400l397 -399l-192 -189z" />
<glyph unicode="=" d="M115 287v270h1032v-270h-1032zM115 725v272h1032v-272h-1032z" />
<glyph unicode="&#x3e;" d="M260 250l397 399l-397 400l193 188l569 -588l-569 -588z" />
<glyph unicode="?" horiz-adv-x="1034" d="M49 895q0 203 122 329t343 126q213 0 330 -105.5t117 -265.5q0 -58 -17 -108.5t-44.5 -86t-61 -66.5t-67 -56t-61 -47.5t-44.5 -48t-17 -52.5v-55h-295v59q0 62 31.5 116t76 92.5t89.5 73t76.5 73t31.5 77.5q0 61 -38.5 93t-108.5 32q-83 0 -125.5 -47.5t-42.5 -132.5 h-295zM348 0v293h305v-293h-305z" />
<glyph unicode="@" horiz-adv-x="2000" d="M61 383q0 255 122 459t338.5 318t486.5 114q204 0 377.5 -63.5t292.5 -174.5t186 -264.5t67 -329.5q0 -260 -116.5 -406.5t-313.5 -146.5q-234 0 -334 172q-95 -110 -258 -110q-159 0 -280 120t-121 300q0 181 120.5 303.5t280.5 122.5q178 0 252 -115v98h273v-522 q0 -58 28 -83t70 -25q61 0 93 74t32 212q0 272 -170.5 428t-478.5 156q-307 0 -489.5 -172.5t-182.5 -464.5q0 -294 173.5 -464.5t469.5 -170.5q183 0 317 55l95 -241q-157 -70 -414 -70q-196 0 -366 66t-291 182.5t-190 282.5t-69 360zM786 371q0 -73 53.5 -125.5 t129.5 -52.5t129 52.5t53 125.5q0 78 -52 130t-130 52q-77 0 -130 -52t-53 -130z" />
<glyph unicode="A" horiz-adv-x="1363" d="M16 0l473 1329h385l474 -1329h-326l-78 233h-516l-76 -233h-336zM520 512h332l-168 502z" />
<glyph unicode="B" horiz-adv-x="1236" d="M141 0v1329h564q178 0 294.5 -102t116.5 -269q0 -176 -141 -270q190 -90 190 -307q0 -169 -119.5 -275t-300.5 -106h-604zM440 266h275q67 0 107 40t40 104q0 63 -40 102t-107 39h-275v-285zM440 799h238q63 0 100 37t37 94t-37 95t-100 38h-238v-264z" />
<glyph unicode="C" horiz-adv-x="1372" d="M70 666q0 189 85 344t245 247.5t366 92.5q184 0 330 -79t241 -227l-280 -159q-47 76 -123 120t-170 44q-158 0 -262.5 -112.5t-104.5 -270.5q0 -159 105 -271t266 -112q94 0 170 43.5t123 119.5l280 -159q-94 -147 -241 -226t-330 -79q-156 0 -288.5 54t-222 146.5 t-139.5 217.5t-50 266z" />
<glyph unicode="D" horiz-adv-x="1435" d="M141 0v1329h559q198 0 349.5 -84.5t233 -235t81.5 -343.5q0 -189 -82 -340t-233.5 -238.5t-346.5 -87.5h-561zM467 293h217q160 0 256 98.5t96 274.5q0 175 -96 272.5t-256 97.5h-217v-743z" />
<glyph unicode="E" horiz-adv-x="1107" d="M141 0v1329h867v-274h-551v-250h501v-268h-501v-261h557v-276h-873z" />
<glyph unicode="F" horiz-adv-x="1062" d="M141 0v1329h856v-278h-530v-285h485v-279h-485v-487h-326z" />
<glyph unicode="G" horiz-adv-x="1476" d="M70 666q0 141 50 266t140 217.5t223 146.5t291 54q315 0 506 -207l-223 -219q-112 125 -285 125q-165 0 -270 -112t-105 -271t105.5 -271t269.5 -112q123 0 212.5 57.5t113.5 167.5h-295v244h614q4 -33 4 -97q0 -161 -53 -291t-143 -212t-207 -126t-248 -44 q-156 0 -288.5 54t-222 146.5t-139.5 217.5t-50 266z" />
<glyph unicode="H" horiz-adv-x="1394" d="M141 0v1329h326v-508h459v508h325v-1329h-325v526h-459v-526h-326z" />
<glyph unicode="I" horiz-adv-x="610" d="M141 0v1329h326v-1329h-326z" />
<glyph unicode="J" horiz-adv-x="1091" d="M2 170l184 236q99 -123 244 -123q98 0 152.5 64t54.5 194v788h326v-799q0 -266 -136 -407t-378 -141q-277 0 -447 188z" />
<glyph unicode="K" horiz-adv-x="1290" d="M141 0v1329h324v-551l409 551h383l-473 -596l521 -733h-377l-346 483l-117 -139v-344h-324z" />
<glyph unicode="L" horiz-adv-x="1050" d="M141 0v1329h342v-1028h533v-301h-875z" />
<glyph unicode="M" horiz-adv-x="1783" d="M141 0v1329h445l307 -946l305 946h444v-1329h-309v877l-280 -877h-322l-280 870v-870h-310z" />
<glyph unicode="N" horiz-adv-x="1509" d="M141 0v1329h320l596 -821v821h311v-1329h-301l-614 852v-852h-312z" />
<glyph unicode="O" horiz-adv-x="1540" d="M70 664q0 189 87.5 345t249 248.5t363.5 92.5q199 0 360 -91t250.5 -247t89.5 -346t-90 -346.5t-251 -247t-359 -90.5q-147 0 -277 52.5t-223 143t-146.5 217t-53.5 269.5zM397 662q0 -161 106 -270t267 -109t267 110t106 271q0 162 -105.5 273.5t-267.5 111.5 q-163 0 -268 -113t-105 -274z" />
<glyph unicode="P" horiz-adv-x="1200" d="M141 0v1329h514q222 0 361 -129t139 -334q0 -200 -137.5 -333.5t-358.5 -133.5h-192v-399h-326zM467 676h180q87 0 139 52t52 136q0 86 -51.5 137.5t-139.5 51.5h-180v-377z" />
<glyph unicode="Q" horiz-adv-x="1540" d="M70 664q0 189 87.5 345t249 248.5t363.5 92.5q199 0 360 -91t250.5 -247t89.5 -346q0 -135 -47 -255t-133 -214l137 -164l-219 -168l-145 174q-136 -57 -293 -57q-147 0 -277 52.5t-223 143t-146.5 217t-53.5 269.5zM397 662q0 -161 106 -270t267 -109q46 0 82 8 l-170 203l219 168l180 -216q62 97 62 218q0 162 -105.5 273.5t-267.5 111.5q-163 0 -268 -113t-105 -274z" />
<glyph unicode="R" horiz-adv-x="1236" d="M141 0v1329h488q128 0 227 -33.5t160.5 -93t93 -136.5t31.5 -169q0 -121 -55 -224t-166 -159l268 -514h-361l-227 461h-141v-461h-318zM459 700h174q95 0 145.5 48t50.5 133q0 88 -49.5 136t-146.5 48h-174v-365z" />
<glyph unicode="S" horiz-adv-x="1189" d="M41 223l215 205q66 -85 156 -125.5t188 -40.5q89 0 144 29.5t55 87.5q0 38 -24 67t-64.5 48.5t-93 37t-110.5 35t-115.5 38.5t-110 52.5t-93 72t-64.5 102t-24 137.5q0 175 139.5 278t362.5 103q155 0 286 -57.5t218 -162.5l-203 -202q-58 66 -137.5 104.5t-163.5 38.5 t-133 -26.5t-49 -77.5q0 -31 24 -56t64.5 -42.5t92.5 -33.5t110 -34.5t116 -40.5t110 -55.5t92.5 -75.5t64.5 -104t24 -138q0 -188 -146.5 -296.5t-373.5 -108.5q-185 0 -320.5 57t-236.5 184z" />
<glyph unicode="T" horiz-adv-x="1216" d="M35 1034v295h1147v-295h-410v-1034h-326v1034h-411z" />
<glyph unicode="U" horiz-adv-x="1460" d="M127 569v760h326v-741q0 -305 278 -305q132 0 204.5 74.5t72.5 230.5v741h325v-760q0 -286 -162 -436.5t-440 -150.5q-279 0 -441.5 150.5t-162.5 436.5z" />
<glyph unicode="V" horiz-adv-x="1398" d="M14 1329h351l335 -999l338 999h346l-485 -1329h-399z" />
<glyph unicode="W" horiz-adv-x="2099" d="M14 1329h348l244 -973l271 973h350l268 -973l246 973h344l-399 -1329h-383l-252 870l-254 -870h-383z" />
<glyph unicode="X" horiz-adv-x="1288" d="M2 0l453 680l-437 649h373l256 -409l254 409h371l-438 -657l452 -672h-373l-272 432l-268 -432h-371z" />
<glyph unicode="Y" horiz-adv-x="1374" d="M10 1329h371l309 -528l305 528h361l-506 -813v-516h-326v518z" />
<glyph unicode="Z" horiz-adv-x="1196" d="M82 0v248l614 796h-612v285h1030v-248l-612 -796h612v-285h-1032z" />
<glyph unicode="[" horiz-adv-x="780" d="M137 -324v1653h588v-260h-285v-1132h285v-261h-588z" />
<glyph unicode="\" horiz-adv-x="798" d="M41 1329h281l436 -1329h-281z" />
<glyph unicode="]" horiz-adv-x="780" d="M55 -63h285v1132h-285v260h586v-1653h-586v261z" />
<glyph unicode="^" d="M117 580l350 749h328l350 -749h-301l-215 501l-211 -501h-301z" />
<glyph unicode="_" horiz-adv-x="1171" d="M80 -55h1012v-267h-1012v267z" />
<glyph unicode="`" horiz-adv-x="1228" d="M123 1253l90 248l520 -194l-86 -232z" />
<glyph unicode="a" horiz-adv-x="1241" d="M63 481q0 108 39 204.5t103.5 162.5t148.5 104.5t172 38.5q109 0 179.5 -33.5t113.5 -103.5v119h299v-973h-303v109q-94 -127 -289 -127q-87 0 -170.5 37.5t-148.5 101.5t-104.5 158.5t-39.5 201.5zM373 481q0 -91 65 -157t158 -66q95 0 160 66t65 159q0 97 -65 164.5 t-160 67.5q-94 0 -158.5 -68t-64.5 -166z" />
<glyph unicode="b" horiz-adv-x="1245" d="M123 0v1382h297v-512q43 62 120 91.5t162 29.5q101 0 191.5 -41t153.5 -110t100 -163t37 -196q0 -100 -37.5 -191.5t-101.5 -159.5t-155 -108t-192 -40q-169 0 -278 106v-88h-297zM426 481q0 -96 64.5 -159.5t160.5 -63.5q94 0 158.5 67t64.5 156q0 95 -64.5 164.5 t-158.5 69.5q-96 0 -160.5 -66t-64.5 -168z" />
<glyph unicode="c" horiz-adv-x="1054" d="M61 487q0 140 70 256.5t190.5 183t264.5 66.5q135 0 246.5 -57.5t185.5 -163.5l-223 -164q-72 107 -199 107q-95 0 -160 -67t-65 -161t65 -161.5t160 -67.5q130 0 203 115l221 -166q-72 -108 -185 -166.5t-249 -58.5q-143 0 -264 66.5t-191 183t-70 255.5z" />
<glyph unicode="d" horiz-adv-x="1247" d="M63 481q0 102 37 196t100 163t153.5 110t191.5 41q85 0 162 -29.5t120 -91.5v512h297v-1382h-297v88q-109 -106 -278 -106q-101 0 -192 40t-155 108t-101.5 159.5t-37.5 191.5zM373 481q0 -89 64.5 -156t158.5 -67q96 0 160.5 63.5t64.5 159.5q0 102 -64.5 168t-160.5 66 q-94 0 -158.5 -69.5t-64.5 -164.5z" />
<glyph unicode="e" horiz-adv-x="1130" d="M63 485q0 103 36 195.5t101 161t161 109t210 40.5q220 0 360 -143.5t140 -358.5q0 -45 -6 -83h-705q20 -80 84 -126.5t158 -46.5q148 0 227 95l185 -156q-69 -91 -178 -140.5t-240 -49.5q-154 0 -276.5 66.5t-189.5 181t-67 255.5zM365 588h415q-7 72 -67 118t-138 46 q-76 0 -133.5 -44t-76.5 -120z" />
<glyph unicode="f" horiz-adv-x="782" d="M70 692v281h137v26q0 193 113 298.5t323 105.5q51 0 98 -6v-273q-23 2 -51 2q-84 0 -124 -29t-40 -98v-26h215v-281h-215v-692h-319v692h-137z" />
<glyph unicode="g" horiz-adv-x="1241" d="M66 481q0 108 39 204.5t103.5 162.5t148 104.5t171.5 38.5q109 0 179.5 -33.5t113.5 -103.5v119h299v-924q0 -244 -152 -382t-415 -138q-258 0 -434 119l108 246q153 -95 318 -95q126 0 199 61.5t73 180.5v68q-94 -123 -289 -123q-87 0 -170.5 37t-148 101t-104 157.5 t-39.5 199.5zM375 481q0 -91 65 -157t158 -66q95 0 160 66t65 159q0 97 -65 164.5t-160 67.5q-94 0 -158.5 -68t-64.5 -166z" />
<glyph unicode="h" horiz-adv-x="1191" d="M123 0v1382h299v-528q84 137 283 137q169 0 271.5 -101t102.5 -274v-616h-319v522q0 84 -40.5 129t-111.5 45q-72 0 -119 -47t-47 -129v-520h-319z" />
<glyph unicode="i" horiz-adv-x="565" d="M123 0v973h319v-973h-319zM123 1126v306h319v-306h-319z" />
<glyph unicode="j" horiz-adv-x="565" d="M-61 -186q23 -2 47 -2q137 0 137 159v1002h319v-1000q0 -229 -102.5 -336.5t-314.5 -107.5q-53 0 -86 4v281zM123 1126v306h319v-306h-319z" />
<glyph unicode="k" horiz-adv-x="1132" d="M123 0v1382h319v-747l303 338h369l-381 -420l422 -553h-346l-268 338l-99 -107v-231h-319z" />
<glyph unicode="l" horiz-adv-x="565" d="M123 0v1382h319v-1382h-319z" />
<glyph unicode="m" horiz-adv-x="1779" d="M123 0v973h299v-117q93 135 272 135q205 0 301 -149q97 149 312 149q169 0 264.5 -102t95.5 -268v-621h-319v522q0 85 -37.5 129.5t-108.5 44.5t-109 -46.5t-38 -129.5v-520h-320v522q0 84 -38 129t-109 45q-72 0 -109 -50t-37 -132v-514h-319z" />
<glyph unicode="n" horiz-adv-x="1191" d="M123 0v973h299v-119q89 137 283 137q169 0 271.5 -101t102.5 -274v-616h-319v522q0 84 -40.5 129t-111.5 45q-72 0 -119 -47t-47 -129v-520h-319z" />
<glyph unicode="o" horiz-adv-x="1189" d="M61 487q0 104 39.5 196.5t109 160.5t169.5 107.5t215 39.5q116 0 216 -39.5t169 -107.5t108 -160.5t39 -196.5q0 -103 -39.5 -195.5t-108 -161t-169 -108.5t-215.5 -40t-215 40t-169.5 108.5t-109 161t-39.5 195.5zM371 487q0 -94 65 -161.5t158 -67.5q95 0 160 67.5 t65 161.5t-65 161t-160 67q-93 0 -158 -67t-65 -161z" />
<glyph unicode="p" horiz-adv-x="1245" d="M123 -451v1424h297v-103q44 64 120 92.5t162 28.5q101 0 191.5 -41.5t153.5 -111t100 -163.5t37 -196q0 -134 -63.5 -248t-175.5 -181.5t-247 -67.5q-95 0 -159.5 27t-118.5 79v-539h-297zM426 479q0 -96 64.5 -158.5t160.5 -62.5q94 0 158.5 66t64.5 155 q0 95 -64.5 164.5t-158.5 69.5q-96 0 -160.5 -66t-64.5 -168z" />
<glyph unicode="q" horiz-adv-x="1247" d="M63 479q0 102 37 196t100 163.5t153.5 111t191.5 41.5q86 0 162 -28.5t120 -92.5v103h297v-1424h-297v539q-54 -52 -118.5 -79t-159.5 -27q-135 0 -247 67.5t-175.5 181.5t-63.5 248zM373 479q0 -89 64.5 -155t158.5 -66q96 0 160.5 62.5t64.5 158.5q0 102 -64.5 168 t-160.5 66q-94 0 -158.5 -69.5t-64.5 -164.5z" />
<glyph unicode="r" horiz-adv-x="782" d="M123 0v973h305v-176q35 94 117.5 144t193.5 50v-336q-16 2 -49 2q-42 0 -82.5 -12.5t-79 -39t-62.5 -77.5q-23 -49 -22 -114v-6v-408h-321z" />
<glyph unicode="s" horiz-adv-x="956" d="M37 207l248 129q25 -56 76.5 -86.5t123.5 -30.5q111 0 111 62q0 24 -22 42t-58.5 28t-83 22.5t-94.5 24.5t-94.5 35t-83 53t-58.5 80t-22 114q0 147 111 230t290 83q131 0 233 -51.5t163 -150.5l-246 -129q-46 94 -150 94q-94 0 -94 -60q0 -27 28.5 -45.5t74 -30.5 t100.5 -25t110 -34.5t100.5 -53t74 -87t28.5 -129.5q0 -144 -112 -226.5t-306 -82.5q-327 0 -448 225z" />
<glyph unicode="t" horiz-adv-x="788" d="M47 692v281h174v248h320v-248h217v-281h-217v-692h-320v692h-174z" />
<glyph unicode="u" horiz-adv-x="1183" d="M113 369v604h315v-543q0 -78 39 -121t111 -43q82 0 126 49.5t44 141.5v516h313v-973h-295v113q-90 -136 -287 -136q-167 0 -266.5 108t-99.5 284z" />
<glyph unicode="v" horiz-adv-x="1122" d="M16 973h334l211 -627l209 627h334l-377 -973h-334z" />
<glyph unicode="w" horiz-adv-x="1691" d="M18 973h330l162 -611l180 611h316l178 -611l162 611h329l-332 -973h-321l-174 588l-170 -588h-330z" />
<glyph unicode="x" horiz-adv-x="1069" d="M2 0l356 496l-338 477h349l166 -250l163 250h351l-336 -477l354 -496h-352l-180 264l-181 -264h-352z" />
<glyph unicode="y" horiz-adv-x="1138" d="M18 973h340l224 -658l196 658h338l-524 -1424h-328l182 439h-43z" />
<glyph unicode="z" horiz-adv-x="976" d="M84 0v258l428 455h-424v260h805v-256l-426 -457h428v-260h-811z" />
<glyph unicode="{" horiz-adv-x="819" d="M43 383v240q105 6 149 54.5t44 158.5v217q0 124 76 200t198 76h256v-252h-127q-54 0 -81.5 -32.5t-27.5 -92.5v-168q0 -213 -200 -280q200 -70 200 -283v-168q0 -60 27.5 -92.5t81.5 -32.5h127v-252h-256q-122 0 -198 76.5t-76 200.5v217q0 110 -44 158.5t-149 54.5z" />
<glyph unicode="|" horiz-adv-x="575" d="M137 -201v1530h299v-1530h-299z" />
<glyph unicode="}" horiz-adv-x="819" d="M55 -72h125q54 0 81.5 32.5t27.5 92.5v168q0 213 200 283q-200 67 -200 280v168q0 60 -27.5 92.5t-81.5 32.5h-125v252h254q122 0 198.5 -76t76.5 -200v-217q0 -110 44 -158.5t148 -54.5v-240q-104 -6 -148 -54.5t-44 -158.5v-217q0 -124 -76.5 -200.5t-198.5 -76.5h-254 v252z" />
<glyph unicode="~" d="M98 502q0 151 78 235t227 84q80 0 161 -18.5t148.5 -36.5t112.5 -18q74 0 74 73h272q0 -152 -78 -235.5t-223 -83.5q-79 0 -162 18t-148.5 36.5t-102.5 18.5q-88 0 -88 -73h-271z" />
<glyph unicode="&#xa1;" horiz-adv-x="536" d="M113 29l71 485h170l70 -485v-385h-311v385zM117 682v291h305v-291h-305z" />
<glyph unicode="&#xa2;" horiz-adv-x="1009" d="M68 666q0 158 93.5 279.5t241.5 164.5v219h267v-209q178 -41 284 -196l-217 -156q-62 100 -176 100q-89 0 -144 -57.5t-55 -144.5q0 -86 55 -143.5t144 -57.5q116 0 180 106l215 -157q-106 -157 -286 -199v-215h-267v223q-148 45 -241.5 166.5t-93.5 276.5z" />
<glyph unicode="&#xa3;" horiz-adv-x="1136" d="M90 0v254q91 73 133.5 118t59.5 99h-181v254h131q-29 44 -43 67.5t-29.5 75.5t-15.5 111q0 159 121.5 265t333.5 106q113 0 202.5 -35t146.5 -95.5t86.5 -141t29.5 -173.5h-313q0 61 -40 107.5t-110 46.5q-66 0 -103.5 -34t-37.5 -89q0 -13 1.5 -26.5t3 -24t5.5 -23.5 t6.5 -21t9 -21.5t9 -19t10.5 -20t10 -18t12 -19.5t11 -18h362v-254h-330q-32 -97 -139 -178h621v-293h-963z" />
<glyph unicode="&#xa4;" horiz-adv-x="1263" d="M74 307l153 154q-61 103 -61 229q0 124 57 221l-149 152l182 182l158 -158q102 48 219 48q119 0 217 -45l158 155l182 -182l-146 -150q58 -99 58 -223q0 -126 -62 -231l150 -152l-182 -182l-164 164q-93 -43 -211 -43q-121 0 -211 43l-166 -164zM436 690q0 -86 55 -140 t142 -54t142 54t54 140q2 85 -54 140.5t-142 54.5q-86 1 -141.5 -54.5t-55.5 -140.5z" />
<glyph unicode="&#xa5;" horiz-adv-x="1441" d="M47 1329h371l307 -528l307 528h361l-308 -493h218v-199h-340l-76 -121v-33h416v-198h-416v-285h-326v285h-418v198h418v35l-76 119h-342v199h217z" />
<glyph unicode="&#xa6;" horiz-adv-x="575" d="M137 -201v584h299v-584h-299zM137 745v584h299v-584h-299z" />
<glyph unicode="&#xa7;" horiz-adv-x="1073" d="M80 555q0 171 151 250q-118 79 -118 223t120.5 233t331.5 89q122 0 237.5 -50t182.5 -133l-176 -170q-102 119 -246 119q-170 0 -170 -88q0 -28 26 -51.5t68 -40t96.5 -36t110.5 -38.5t110.5 -48t96.5 -63t68 -86.5t26 -115.5q0 -173 -153 -254q121 -79 121 -225 q0 -142 -120.5 -231t-330.5 -89q-125 0 -243.5 51t-186.5 138l180 167q108 -122 250 -122q170 0 170 88q0 32 -33 58t-86.5 45.5t-117.5 40.5t-128 49.5t-117.5 65t-86.5 94t-33 130.5zM344 584q0 -50 41.5 -87.5t82.5 -54t131 -44.5q8 -3 12 -4t10.5 -3t11.5 -4 q98 32 98 129q0 50 -41.5 87.5t-82.5 54t-131 44.5q-23 7 -34 11q-98 -32 -98 -129z" />
<glyph unicode="&#xa8;" horiz-adv-x="1228" d="M166 1133v292h305v-292h-305zM641 1133v292h303v-292h-303z" />
<glyph unicode="&#xa9;" horiz-adv-x="1540" d="M70 664q0 192 88 348.5t248.5 247t363.5 90.5q202 0 362.5 -89.5t249 -246t88.5 -350.5q0 -144 -53.5 -270.5t-146 -217t-222.5 -142.5t-278 -52q-147 0 -277 52t-223 142t-146.5 217t-53.5 271zM270 662q0 -220 141 -360t359 -140q217 0 358.5 140.5t141.5 359.5 q0 220 -140.5 363.5t-359.5 143.5t-359.5 -144t-140.5 -363zM393 666q0 158 114.5 267t276.5 109q102 0 185.5 -42t138.5 -121l-166 -121q-54 78 -147 78q-73 0 -122.5 -50t-49.5 -120t49.5 -120t122.5 -50q94 0 151 82l164 -121q-54 -81 -139 -124.5t-187 -43.5 q-162 0 -276.5 110.5t-114.5 266.5z" />
<glyph unicode="&#xaa;" horiz-adv-x="935" d="M59 989q0 76 29 143t75 112t105 71t119 26q148 0 209 -94v82h227v-670h-229v68q-79 -82 -207 -82q-80 0 -154.5 41.5t-124 122t-49.5 180.5zM287 995q0 -58 40 -98.5t99 -40.5t99 40.5t40 98.5q0 56 -40 97t-99 41t-99 -41t-40 -97z" />
<glyph unicode="&#xab;" horiz-adv-x="1179" d="M47 475l301 371h297l-297 -371l297 -371h-301zM512 475l301 371h297l-297 -371l297 -371h-301z" />
<glyph unicode="&#xac;" d="M109 496v270h1030v-561h-287v291h-743z" />
<glyph unicode="&#xad;" horiz-adv-x="860" d="M106 446v267h648v-267h-648z" />
<glyph unicode="&#xae;" horiz-adv-x="1540" d="M70 664q0 192 88 348.5t248.5 247t363.5 90.5q202 0 362.5 -89.5t249 -246t88.5 -350.5q0 -144 -53.5 -270.5t-146 -217t-222.5 -142.5t-278 -52q-147 0 -277 52t-223 142t-146.5 217t-53.5 271zM270 662q0 -220 141 -360t359 -140q216 0 358 140.5t142 359.5 q0 220 -140.5 363.5t-359.5 143.5t-359.5 -144t-140.5 -363zM508 326v710h285q128 0 210 -65t82 -168q0 -71 -36 -127.5t-99 -87.5l156 -262h-240l-112 233h-37v-233h-209zM717 717h86q35 0 57.5 21t22.5 53q0 33 -22 53t-58 20h-86v-147z" />
<glyph unicode="&#xaf;" horiz-adv-x="1228" d="M123 1161v246h708v-246h-708z" />
<glyph unicode="&#xb0;" horiz-adv-x="776" d="M59 1020q0 138 93.5 228.5t236.5 90.5q142 0 235 -90.5t93 -228.5t-93 -229t-235 -91t-236 91t-94 229zM264 1020q0 -53 35 -87.5t90 -35.5q53 0 88 35.5t35 87.5q0 53 -34.5 88t-88.5 35q-55 0 -90 -35t-35 -88z" />
<glyph unicode="&#xb1;" d="M115 37v270h1032v-270h-1032zM115 688v270h381v291h270v-291h381v-270h-381v-282h-270v282h-381z" />
<glyph unicode="&#xb2;" horiz-adv-x="821" d="M94 1044q0 145 83.5 222t236.5 77q139 0 217 -65.5t78 -181.5q0 -84 -40.5 -151.5t-131.5 -131.5l-70 -51l260 4v-221h-627v180l265 205q56 41 80 70t24 61q0 61 -63 61q-74 0 -74 -78h-238z" />
<glyph unicode="&#xb3;" horiz-adv-x="763" d="M55 756l215 82q25 -88 105 -88q78 0 78 63q0 34 -24.5 52t-68.5 18h-20l-76 112l129 125h-284v209h553v-199l-134 -149q83 -20 121.5 -76t38.5 -127q0 -106 -82 -177t-223 -71q-132 0 -216 59.5t-112 166.5z" />
<glyph unicode="&#xb4;" horiz-adv-x="1228" d="M123 1307l520 194l90 -248l-524 -178z" />
<glyph unicode="&#xb5;" horiz-adv-x="1183" d="M123 -270v1243h313v-516q0 -92 45 -141.5t125 -49.5q72 0 112 43t40 121v543h313v-604q0 -176 -99.5 -284t-266.5 -108q-198 0 -285 136v-383h-297z" />
<glyph unicode="&#xb6;" horiz-adv-x="1361" d="M49 907q0 186 109 304t303 118h813v-248h-107v-1282h-243v1282h-166v-1282h-256v688h-41q-197 0 -304.5 117t-107.5 303z" />
<glyph unicode="&#xb7;" horiz-adv-x="542" d="M106 401v318h330v-318h-330z" />
<glyph unicode="&#xb8;" horiz-adv-x="1228" d="M115 -446l98 143q53 -43 131 -43q72 0 72 49q0 51 -90 51h-133l73 246h178l-28 -96h16q88 0 144.5 -53t56.5 -146q0 -98 -75.5 -160.5t-199.5 -62.5q-151 0 -243 72z" />
<glyph unicode="&#xb9;" horiz-adv-x="628" d="M47 1077v252h467v-784h-283v532h-184z" />
<glyph unicode="&#xba;" horiz-adv-x="854" d="M59 993q0 152 102 250t265 98q164 0 266.5 -99.5t102.5 -250.5q0 -148 -103 -247t-266 -99q-162 0 -264.5 99t-102.5 249zM295 995q0 -56 37 -93.5t94 -37.5q58 0 95.5 37.5t37.5 93.5q0 53 -37.5 91t-95.5 38q-56 0 -93.5 -38t-37.5 -91z" />
<glyph unicode="&#xbb;" horiz-adv-x="1179" d="M72 104l295 371l-295 371h297l299 -371l-295 -371h-301zM537 104l294 371l-294 371h297l299 -371l-295 -371h-301z" />
<glyph unicode="&#xbc;" horiz-adv-x="1740" d="M49 1077v252h465v-784h-283v532h-182zM385 0l598 1329h252l-596 -1329h-254zM981 137v223l129 424h266l-137 -424h129v166h248v-159h72v-230h-72v-137h-248v137h-387z" />
<glyph unicode="&#xbd;" horiz-adv-x="1728" d="M49 1077v252h465v-784h-283v532h-182zM387 0l596 1329h254l-598 -1329h-252zM1028 498q1 147 84 224t236 77q139 0 218 -66t79 -182q0 -84 -41.5 -151.5t-133.5 -131.5l-71 -53l262 4v-219h-625v180l264 203q55 43 79 72t24 59q0 32 -17 48t-45 16q-72 0 -75 -80h-238z " />
<glyph unicode="&#xbe;" horiz-adv-x="1861" d="M51 756l215 82q25 -88 105 -88q78 0 78 63q0 34 -24.5 52t-68.5 18h-20l-76 112l129 125h-285v209h553v-199l-133 -149q83 -20 121.5 -76t38.5 -127q0 -106 -82 -177t-223 -71q-132 0 -216 59.5t-112 166.5zM508 0l596 1329h252l-596 -1329h-252zM1104 137v223l129 424 h264l-137 -424h131v166h246v-159h73v-230h-73v-137h-246v137h-387z" />
<glyph unicode="&#xbf;" horiz-adv-x="1013" d="M59 -6q0 58 17 108.5t44.5 86t60.5 66.5t66 56t60.5 47.5t44.5 48t17 52.5v55h297v-59q0 -53 -23 -100t-57 -80t-74 -66t-74 -59.5t-57 -59.5t-23 -67q0 -61 40 -93t110 -32q82 0 124 47.5t42 132.5h297q0 -203 -122 -329t-343 -126q-213 0 -330 105.5t-117 265.5z M367 682v291h305v-291h-305z" />
<glyph unicode="&#xc0;" horiz-adv-x="1363" d="M16 0l473 1329h385l474 -1329h-326l-78 233h-516l-76 -233h-336zM373 1589l96 266l520 -196l-92 -246zM520 512h332l-168 502z" />
<glyph unicode="&#xc1;" horiz-adv-x="1363" d="M16 0l473 1329h385l474 -1329h-326l-78 233h-516l-76 -233h-336zM373 1659l520 196l96 -266l-524 -176zM520 512h332l-168 502z" />
<glyph unicode="&#xc2;" horiz-adv-x="1363" d="M16 0l473 1329h385l474 -1329h-326l-78 233h-516l-76 -233h-336zM285 1608l313 227h168l313 -227l-131 -191l-266 178l-264 -178zM520 512h332l-168 502z" />
<glyph unicode="&#xc3;" horiz-adv-x="1363" d="M16 0l473 1329h385l474 -1329h-326l-78 233h-516l-76 -233h-336zM262 1485q0 152 65 235.5t193 83.5q57 0 111.5 -18t97.5 -36.5t72 -18.5q69 0 69 73h232q0 -152 -65.5 -235.5t-188.5 -83.5q-59 0 -113.5 18.5t-96.5 37t-71 18.5q-73 0 -73 -74h-232zM520 512h332 l-168 502z" />
<glyph unicode="&#xc4;" horiz-adv-x="1363" d="M16 0l473 1329h385l474 -1329h-326l-78 233h-516l-76 -233h-336zM274 1477v309h320v-309h-320zM520 512h332l-168 502zM770 1477v309h320v-309h-320z" />
<glyph unicode="&#xc5;" horiz-adv-x="1363" d="M16 0l473 1329h385l474 -1329h-326l-78 233h-516l-76 -233h-336zM391 1677q0 113 81.5 192t209.5 79t209.5 -79t81.5 -192q0 -116 -81 -193t-210 -77t-210 77t-81 193zM520 512h332l-168 502zM588 1677q0 -39 26.5 -65.5t67.5 -26.5q42 0 68 26.5t26 65.5q0 38 -26 64 t-68 26q-41 0 -67.5 -26.5t-26.5 -63.5z" />
<glyph unicode="&#xc6;" horiz-adv-x="1886" d="M-33 0l787 1329h1034v-274h-551v-250h502v-268h-502v-261h555v-276h-870v248h-465l-140 -248h-350zM614 526h308v547z" />
<glyph unicode="&#xc7;" horiz-adv-x="1372" d="M70 666q0 189 85 344t245 247.5t366 92.5q184 0 330 -79t241 -227l-280 -159q-47 76 -123 120t-170 44q-158 0 -262.5 -112.5t-104.5 -270.5q0 -159 105 -271t266 -112q94 0 170 43.5t123 119.5l280 -159q-87 -136 -219.5 -214.5t-296.5 -88.5l-24 -80h16q88 0 144.5 -53 t56.5 -146q0 -98 -75 -160.5t-198 -62.5q-150 0 -245 72l98 143q53 -43 131 -43q72 0 72 49q0 51 -90 51h-131l69 236q-175 26 -307.5 122.5t-202 240t-69.5 313.5z" />
<glyph unicode="&#xc8;" horiz-adv-x="1107" d="M141 0v1329h867v-274h-551v-250h501v-268h-501v-261h557v-276h-873zM299 1589l96 266l518 -196l-90 -246z" />
<glyph unicode="&#xc9;" horiz-adv-x="1107" d="M141 0v1329h867v-274h-551v-250h501v-268h-501v-261h557v-276h-873zM299 1659l518 196l96 -266l-524 -176z" />
<glyph unicode="&#xca;" horiz-adv-x="1107" d="M141 0v1329h867v-274h-551v-250h501v-268h-501v-261h557v-276h-873zM211 1608l311 227h170l314 -227l-134 -191l-264 178l-266 -178z" />
<glyph unicode="&#xcb;" horiz-adv-x="1107" d="M141 0v1329h867v-274h-551v-250h501v-268h-501v-261h557v-276h-873zM201 1477v309h319v-309h-319zM694 1477v309h322v-309h-322z" />
<glyph unicode="&#xcc;" horiz-adv-x="610" d="M-4 1589l96 266l520 -196l-92 -246zM141 0v1329h326v-1329h-326z" />
<glyph unicode="&#xcd;" horiz-adv-x="610" d="M-4 1659l520 196l96 -266l-526 -176zM141 0v1329h326v-1329h-326z" />
<glyph unicode="&#xce;" horiz-adv-x="610" d="M-92 1608l313 227h168l313 -227l-133 -191l-264 178l-266 -178zM141 0v1329h326v-1329h-326z" />
<glyph unicode="&#xcf;" horiz-adv-x="610" d="M-102 1477v309h319v-309h-319zM141 0v1329h326v-1329h-326zM393 1477v309h320v-309h-320z" />
<glyph unicode="&#xd0;" horiz-adv-x="1478" d="M41 543v245h145v541h557q198 0 349.5 -84.5t233 -235t81.5 -343.5q0 -189 -81 -340t-232 -238.5t-346 -87.5h-562v543h-145zM510 293h219q158 0 254 99t96 274t-95.5 272.5t-254.5 97.5h-219v-248h287v-245h-287v-250z" />
<glyph unicode="&#xd1;" horiz-adv-x="1509" d="M141 0v1329h320l596 -821v821h311v-1329h-301l-614 852v-852h-312zM336 1485q0 152 65 235.5t193 83.5q44 0 88.5 -11.5t73.5 -25t61.5 -25t56.5 -11.5q70 0 70 73h230q0 -152 -64.5 -235.5t-187.5 -83.5q-59 0 -113.5 18.5t-96.5 37t-71 18.5q-74 0 -74 -74h-231z" />
<glyph unicode="&#xd2;" horiz-adv-x="1540" d="M70 664q0 189 87.5 345t249 248.5t363.5 92.5q199 0 360 -91t250.5 -247t89.5 -346t-90 -346.5t-251 -247t-359 -90.5q-147 0 -277 52.5t-223 143t-146.5 217t-53.5 269.5zM397 662q0 -161 106 -270t267 -109t267 110t106 271q0 162 -105.5 273.5t-267.5 111.5 q-163 0 -268 -113t-105 -274zM461 1589l96 266l520 -196l-90 -246z" />
<glyph unicode="&#xd3;" horiz-adv-x="1540" d="M70 664q0 189 87.5 345t249 248.5t363.5 92.5q199 0 360 -91t250.5 -247t89.5 -346t-90 -346.5t-251 -247t-359 -90.5q-147 0 -277 52.5t-223 143t-146.5 217t-53.5 269.5zM397 662q0 -161 106 -270t267 -109t267 110t106 271q0 162 -105.5 273.5t-267.5 111.5 q-163 0 -268 -113t-105 -274zM461 1659l520 196l96 -266l-524 -176z" />
<glyph unicode="&#xd4;" horiz-adv-x="1540" d="M70 664q0 189 87.5 345t249 248.5t363.5 92.5q199 0 360 -91t250.5 -247t89.5 -346t-90 -346.5t-251 -247t-359 -90.5q-147 0 -277 52.5t-223 143t-146.5 217t-53.5 269.5zM373 1608l313 227h170l311 -227l-131 -191l-266 178l-264 -178zM397 662q0 -161 106 -270 t267 -109t267 110t106 271q0 162 -105.5 273.5t-267.5 111.5q-163 0 -268 -113t-105 -274z" />
<glyph unicode="&#xd5;" horiz-adv-x="1540" d="M70 664q0 189 87.5 345t249 248.5t363.5 92.5q199 0 360 -91t250.5 -247t89.5 -346t-90 -346.5t-251 -247t-359 -90.5q-147 0 -277 52.5t-223 143t-146.5 217t-53.5 269.5zM352 1485q0 153 64 236t192 83q57 0 111.5 -18t97.5 -36.5t72 -18.5q69 0 69 73h232 q0 -153 -64.5 -236t-189.5 -83q-58 0 -112.5 18.5t-97 37t-71.5 18.5q-73 0 -73 -74h-230zM397 662q0 -161 106 -270t267 -109t267 110t106 271q0 162 -105.5 273.5t-267.5 111.5q-163 0 -268 -113t-105 -274z" />
<glyph unicode="&#xd6;" horiz-adv-x="1540" d="M70 664q0 189 87.5 345t249 248.5t363.5 92.5q199 0 360 -91t250.5 -247t89.5 -346t-90 -346.5t-251 -247t-359 -90.5q-147 0 -277 52.5t-223 143t-146.5 217t-53.5 269.5zM362 1477v309h322v-309h-322zM397 662q0 -161 106 -270t267 -109t267 110t106 271 q0 162 -105.5 273.5t-267.5 111.5q-163 0 -268 -113t-105 -274zM858 1477v309h320v-309h-320z" />
<glyph unicode="&#xd7;" d="M147 338l293 293l-293 291l193 190l291 -291l291 291l192 -190l-293 -291l293 -293l-190 -191l-293 293l-293 -293z" />
<glyph unicode="&#xd8;" horiz-adv-x="1566" d="M41 125l158 158q-113 166 -113 381q0 189 87 345t248 248.5t363 92.5q214 0 379 -103l154 154l205 -207l-150 -147q113 -171 113 -381q0 -142 -53.5 -269t-145.5 -218t-223 -144t-279 -53q-212 0 -376 102l-164 -164zM414 662q0 -76 24 -140l496 496q-70 31 -150 31 q-161 0 -265.5 -113t-104.5 -274zM637 311q70 -28 147 -28q161 0 267 110t106 271q0 76 -24 143z" />
<glyph unicode="&#xd9;" horiz-adv-x="1460" d="M127 569v760h326v-741q0 -305 278 -305q132 0 204.5 74.5t72.5 230.5v741h325v-760q0 -286 -162 -436.5t-440 -150.5q-279 0 -441.5 150.5t-162.5 436.5zM422 1589l96 266l518 -196l-90 -246z" />
<glyph unicode="&#xda;" horiz-adv-x="1460" d="M127 569v760h326v-741q0 -305 278 -305q132 0 204.5 74.5t72.5 230.5v741h325v-760q0 -286 -162 -436.5t-440 -150.5q-279 0 -441.5 150.5t-162.5 436.5zM422 1659l518 196l96 -266l-524 -176z" />
<glyph unicode="&#xdb;" horiz-adv-x="1460" d="M127 569v760h326v-741q0 -305 278 -305q132 0 204.5 74.5t72.5 230.5v741h325v-760q0 -286 -162 -436.5t-440 -150.5q-279 0 -441.5 150.5t-162.5 436.5zM332 1608l313 227h170l313 -227l-133 -191l-264 178l-266 -178z" />
<glyph unicode="&#xdc;" horiz-adv-x="1460" d="M127 569v760h326v-741q0 -305 278 -305q132 0 204.5 74.5t72.5 230.5v741h325v-760q0 -286 -162 -436.5t-440 -150.5q-279 0 -441.5 150.5t-162.5 436.5zM324 1477v309h319v-309h-319zM817 1477v309h320v-309h-320z" />
<glyph unicode="&#xdd;" horiz-adv-x="1374" d="M10 1329h371l309 -528l305 528h361l-506 -813v-516h-326v518zM375 1659l520 196l96 -266l-526 -176z" />
<glyph unicode="&#xde;" horiz-adv-x="1204" d="M141 0v1329h324v-196h180q219 0 357.5 -129.5t138.5 -333.5q0 -200 -137 -333.5t-355 -133.5h-184v-203h-324zM465 479h172q86 0 138 52.5t52 136.5q0 86 -51.5 136t-138.5 50h-172v-375z" />
<glyph unicode="&#xdf;" horiz-adv-x="1187" d="M123 0v905q0 104 28.5 192t85.5 157.5t152 109t219 39.5q214 0 332.5 -107.5t118.5 -273.5q0 -112 -50.5 -186t-127.5 -113q107 -32 175 -118.5t68 -211.5q0 -190 -134 -291.5t-367 -101.5h-80v264h78q100 0 153 41t53 119q0 71 -52 111t-144 40h-88v259h55 q78 0 123 40.5t45 110.5q0 63 -41.5 103t-118.5 40q-91 0 -137.5 -57t-46.5 -153v-918h-299z" />
<glyph unicode="&#xe0;" horiz-adv-x="1241" d="M63 481q0 108 39 204.5t103.5 162.5t148.5 104.5t172 38.5q109 0 179.5 -33.5t113.5 -103.5v119h299v-973h-303v109q-94 -127 -289 -127q-87 0 -170.5 37.5t-148.5 101.5t-104.5 158.5t-39.5 201.5zM299 1253l90 248l520 -194l-86 -232zM373 481q0 -91 65 -157t158 -66 q95 0 160 66t65 159q0 97 -65 164.5t-160 67.5q-94 0 -158.5 -68t-64.5 -166z" />
<glyph unicode="&#xe1;" horiz-adv-x="1241" d="M63 481q0 108 39 204.5t103.5 162.5t148.5 104.5t172 38.5q109 0 179.5 -33.5t113.5 -103.5v119h299v-973h-303v109q-94 -127 -289 -127q-87 0 -170.5 37.5t-148.5 101.5t-104.5 158.5t-39.5 201.5zM301 1307l520 194l90 -248l-524 -178zM373 481q0 -91 65 -157t158 -66 q95 0 160 66t65 159q0 97 -65 164.5t-160 67.5q-94 0 -158.5 -68t-64.5 -166z" />
<glyph unicode="&#xe2;" horiz-adv-x="1241" d="M63 481q0 108 39 204.5t103.5 162.5t148.5 104.5t172 38.5q109 0 179.5 -33.5t113.5 -103.5v119h299v-973h-303v109q-94 -127 -289 -127q-87 0 -170.5 37.5t-148.5 101.5t-104.5 158.5t-39.5 201.5zM209 1266l313 227h168l314 -227l-132 -191l-266 180l-266 -180z M373 481q0 -91 65 -157t158 -66q95 0 160 66t65 159q0 97 -65 164.5t-160 67.5q-94 0 -158.5 -68t-64.5 -166z" />
<glyph unicode="&#xe3;" horiz-adv-x="1241" d="M63 481q0 108 39 204.5t103.5 162.5t148.5 104.5t172 38.5q109 0 179.5 -33.5t113.5 -103.5v119h299v-973h-303v109q-94 -127 -289 -127q-87 0 -170.5 37.5t-148.5 101.5t-104.5 158.5t-39.5 201.5zM186 1118q0 152 65 236t193 84q57 0 111.5 -21t97.5 -42t72 -21 q80 0 80 84h221q0 -152 -65.5 -236t-188.5 -84q-59 0 -113 21t-96 42t-71 21q-84 0 -84 -84h-222zM373 481q0 -91 65 -157t158 -66q95 0 160 66t65 159q0 97 -65 164.5t-160 67.5q-94 0 -158.5 -68t-64.5 -166z" />
<glyph unicode="&#xe4;" horiz-adv-x="1241" d="M63 481q0 108 39 204.5t103.5 162.5t148.5 104.5t172 38.5q109 0 179.5 -33.5t113.5 -103.5v119h299v-973h-303v109q-94 -127 -289 -127q-87 0 -170.5 37.5t-148.5 101.5t-104.5 158.5t-39.5 201.5zM219 1133v292h303v-292h-303zM373 481q0 -91 65 -157t158 -66 q95 0 160 66t65 159q0 97 -65 164.5t-160 67.5q-94 0 -158.5 -68t-64.5 -166zM692 1133v292h303v-292h-303z" />
<glyph unicode="&#xe5;" horiz-adv-x="1241" d="M63 481q0 108 39 204.5t103.5 162.5t148.5 104.5t172 38.5q109 0 179.5 -33.5t113.5 -103.5v119h299v-973h-303v109q-94 -127 -289 -127q-87 0 -170.5 37.5t-148.5 101.5t-104.5 158.5t-39.5 201.5zM336 1319q0 106 76 180t194 74t194.5 -74t76.5 -180q0 -108 -76.5 -182 t-194.5 -74t-194 74t-76 182zM373 481q0 -91 65 -157t158 -66q95 0 160 66t65 159q0 97 -65 164.5t-160 67.5q-94 0 -158.5 -68t-64.5 -166zM514 1319q0 -39 25.5 -64.5t66.5 -25.5t66.5 25.5t25.5 64.5q0 38 -26 64t-66 26t-66 -26t-26 -64z" />
<glyph unicode="&#xe6;" horiz-adv-x="1908" d="M63 481q0 108 39 204.5t103.5 162.5t148.5 104.5t172 38.5q109 0 179.5 -33.5t113.5 -103.5v119h299v-68q117 86 268 86q144 0 250.5 -70t158.5 -182.5t52 -249.5q0 -45 -6 -83h-708q20 -80 85 -126.5t160 -46.5q149 0 228 95l184 -156q-69 -92 -171 -141t-226 -49 q-157 0 -275 88v-70h-303v109q-94 -127 -289 -127q-87 0 -170.5 37.5t-148.5 101.5t-104.5 158.5t-39.5 201.5zM373 481q0 -91 65 -157t158 -66q95 0 160 66t65 159q0 97 -65 164.5t-160 67.5q-94 0 -158.5 -68t-64.5 -166zM1137 592h419q-7 68 -67 114t-137 46 q-76 0 -136 -44.5t-79 -115.5z" />
<glyph unicode="&#xe7;" horiz-adv-x="1054" d="M61 487q0 140 70 256.5t190.5 183t264.5 66.5q135 0 246.5 -57.5t185.5 -163.5l-223 -164q-72 107 -199 107q-95 0 -160 -67t-65 -161t65 -161.5t160 -67.5q130 0 203 115l221 -166q-60 -88 -147.5 -144t-192.5 -73l-25 -86h17q88 0 145 -53t57 -146q0 -98 -75 -160.5 t-199 -62.5q-152 0 -244 72l97 143q57 -43 131 -43q73 0 73 49q0 51 -90 51h-133l68 234q-190 30 -315.5 169.5t-125.5 329.5z" />
<glyph unicode="&#xe8;" horiz-adv-x="1130" d="M63 485q0 103 36 195.5t101 161t161 109t210 40.5q220 0 360 -143.5t140 -358.5q0 -45 -6 -83h-705q20 -80 84 -126.5t158 -46.5q148 0 227 95l185 -156q-69 -91 -178 -140.5t-240 -49.5q-154 0 -276.5 66.5t-189.5 181t-67 255.5zM260 1253l90 248l520 -194l-86 -232z M365 588h415q-7 72 -67 118t-138 46q-76 0 -133.5 -44t-76.5 -120z" />
<glyph unicode="&#xe9;" horiz-adv-x="1130" d="M63 485q0 103 36 195.5t101 161t161 109t210 40.5q220 0 360 -143.5t140 -358.5q0 -45 -6 -83h-705q20 -80 84 -126.5t158 -46.5q148 0 227 95l185 -156q-69 -91 -178 -140.5t-240 -49.5q-154 0 -276.5 66.5t-189.5 181t-67 255.5zM260 1307l520 194l90 -248l-524 -178z M365 588h415q-7 72 -67 118t-138 46q-76 0 -133.5 -44t-76.5 -120z" />
<glyph unicode="&#xea;" horiz-adv-x="1130" d="M63 485q0 103 36 195.5t101 161t161 109t210 40.5q220 0 360 -143.5t140 -358.5q0 -45 -6 -83h-705q20 -80 84 -126.5t158 -46.5q148 0 227 95l185 -156q-69 -91 -178 -140.5t-240 -49.5q-154 0 -276.5 66.5t-189.5 181t-67 255.5zM168 1266l313 227h170l314 -227 l-134 -191l-264 180l-266 -180zM365 588h415q-7 72 -67 118t-138 46q-76 0 -133.5 -44t-76.5 -120z" />
<glyph unicode="&#xeb;" horiz-adv-x="1130" d="M63 485q0 103 36 195.5t101 161t161 109t210 40.5q220 0 360 -143.5t140 -358.5q0 -45 -6 -83h-705q20 -80 84 -126.5t158 -46.5q148 0 227 95l185 -156q-69 -91 -178 -140.5t-240 -49.5q-154 0 -276.5 66.5t-189.5 181t-67 255.5zM178 1133v292h303v-292h-303zM365 588 h415q-7 72 -67 118t-138 46q-76 0 -133.5 -44t-76.5 -120zM653 1133v292h303v-292h-303z" />
<glyph unicode="&#xec;" horiz-adv-x="565" d="M-23 1253l89 248l520 -194l-84 -232zM123 0v973h319v-973h-319z" />
<glyph unicode="&#xed;" horiz-adv-x="565" d="M-23 1307l521 194l88 -248l-523 -178zM123 0v973h319v-973h-319z" />
<glyph unicode="&#xee;" horiz-adv-x="565" d="M-115 1266l314 227h170l311 -227l-131 -191l-264 180l-267 -180zM123 0v973h319v-973h-319z" />
<glyph unicode="&#xef;" horiz-adv-x="565" d="M-104 1133v292h303v-292h-303zM123 0v973h319v-973h-319zM369 1133v292h305v-292h-305z" />
<glyph unicode="&#xf0;" horiz-adv-x="1173" d="M63 461q0 198 137 334.5t335 136.5q158 0 229 -86q-23 103 -102 176l-33 -59l-236 127l27 45q-65 10 -117 10v250q126 0 248 -29l63 113l238 -119l-59 -107q150 -108 225.5 -287.5t75.5 -406.5q0 -264 -139.5 -420.5t-379.5 -156.5q-108 0 -203.5 38t-163 102.5 t-106.5 152.5t-39 186zM365 459q0 -90 62 -153.5t151 -63.5q91 0 153 63.5t62 153.5q0 89 -62 153t-153 64q-89 0 -151 -64.5t-62 -152.5z" />
<glyph unicode="&#xf1;" horiz-adv-x="1191" d="M123 0v973h299v-119q89 137 283 137q169 0 271.5 -101t102.5 -274v-616h-319v522q0 84 -40.5 129t-111.5 45q-72 0 -119 -47t-47 -129v-520h-319zM184 1118q0 152 65 236t193 84q56 0 110.5 -21t98 -42t72.5 -21q80 0 80 84h219q0 -153 -64.5 -236.5t-187.5 -83.5 q-59 0 -113.5 21t-97 42t-72.5 21q-81 0 -81 -84h-222z" />
<glyph unicode="&#xf2;" horiz-adv-x="1189" d="M61 487q0 104 39.5 196.5t109 160.5t169.5 107.5t215 39.5q116 0 216 -39.5t169 -107.5t108 -160.5t39 -196.5q0 -103 -39.5 -195.5t-108 -161t-169 -108.5t-215.5 -40t-215 40t-169.5 108.5t-109 161t-39.5 195.5zM289 1253l90 248l520 -194l-86 -232zM371 487 q0 -94 65 -161.5t158 -67.5q95 0 160 67.5t65 161.5t-65 161t-160 67q-93 0 -158 -67t-65 -161z" />
<glyph unicode="&#xf3;" horiz-adv-x="1189" d="M61 487q0 104 39.5 196.5t109 160.5t169.5 107.5t215 39.5q116 0 216 -39.5t169 -107.5t108 -160.5t39 -196.5q0 -103 -39.5 -195.5t-108 -161t-169 -108.5t-215.5 -40t-215 40t-169.5 108.5t-109 161t-39.5 195.5zM289 1307l520 194l90 -248l-524 -178zM371 487 q0 -94 65 -161.5t158 -67.5q95 0 160 67.5t65 161.5t-65 161t-160 67q-93 0 -158 -67t-65 -161z" />
<glyph unicode="&#xf4;" horiz-adv-x="1189" d="M61 487q0 104 39.5 196.5t109 160.5t169.5 107.5t215 39.5q116 0 216 -39.5t169 -107.5t108 -160.5t39 -196.5q0 -103 -39.5 -195.5t-108 -161t-169 -108.5t-215.5 -40t-215 40t-169.5 108.5t-109 161t-39.5 195.5zM199 1266l311 227h170l313 -227l-133 -191l-264 180 l-266 -180zM371 487q0 -94 65 -161.5t158 -67.5q95 0 160 67.5t65 161.5t-65 161t-160 67q-93 0 -158 -67t-65 -161z" />
<glyph unicode="&#xf5;" horiz-adv-x="1189" d="M61 487q0 104 39.5 196.5t109 160.5t169.5 107.5t215 39.5q116 0 216 -39.5t169 -107.5t108 -160.5t39 -196.5q0 -103 -39.5 -195.5t-108 -161t-169 -108.5t-215.5 -40t-215 40t-169.5 108.5t-109 161t-39.5 195.5zM176 1118q0 152 65 236t193 84q56 0 110.5 -21t98 -42 t72.5 -21q78 0 78 84h221q0 -153 -64.5 -236.5t-187.5 -83.5q-59 0 -113.5 21t-97 42t-72.5 21q-82 0 -82 -84h-221zM371 487q0 -94 65 -161.5t158 -67.5q95 0 160 67.5t65 161.5t-65 161t-160 67q-93 0 -158 -67t-65 -161z" />
<glyph unicode="&#xf6;" horiz-adv-x="1189" d="M61 487q0 104 39.5 196.5t109 160.5t169.5 107.5t215 39.5q116 0 216 -39.5t169 -107.5t108 -160.5t39 -196.5q0 -103 -39.5 -195.5t-108 -161t-169 -108.5t-215.5 -40t-215 40t-169.5 108.5t-109 161t-39.5 195.5zM207 1133v292h305v-292h-305zM371 487q0 -94 65 -161.5 t158 -67.5q95 0 160 67.5t65 161.5t-65 161t-160 67q-93 0 -158 -67t-65 -161zM682 1133v292h303v-292h-303z" />
<glyph unicode="&#xf7;" d="M115 500v272h1032v-272h-1032zM449 246q0 73 50.5 122.5t125.5 49.5q76 0 126 -49t50 -123t-50 -123t-126 -49q-75 0 -125.5 49.5t-50.5 122.5zM449 1028q0 72 50.5 122t125.5 50q76 0 126 -49.5t50 -122.5q0 -74 -50 -124t-126 -50q-75 0 -125.5 50t-50.5 124z" />
<glyph unicode="&#xf8;" horiz-adv-x="1220" d="M37 90l123 121q-82 124 -82 276q0 104 39 196.5t108 160.5t168.5 107.5t214.5 39.5q149 0 269 -63l131 133l176 -176l-123 -123q82 -124 82 -275q0 -103 -39.5 -195.5t-109 -161t-170 -108.5t-216.5 -40q-147 0 -264 63l-131 -131zM385 487q0 -94 65 -161.5t158 -67.5 q95 0 160.5 67.5t65.5 161.5t-65.5 161t-160.5 67q-93 0 -158 -67t-65 -161z" />
<glyph unicode="&#xf9;" horiz-adv-x="1183" d="M113 369v604h315v-543q0 -78 39 -121t111 -43q82 0 126 49.5t44 141.5v516h313v-973h-295v113q-90 -136 -287 -136q-167 0 -266.5 108t-99.5 284zM283 1253l90 248l520 -194l-86 -232z" />
<glyph unicode="&#xfa;" horiz-adv-x="1183" d="M113 369v604h315v-543q0 -78 39 -121t111 -43q82 0 126 49.5t44 141.5v516h313v-973h-295v113q-90 -136 -287 -136q-167 0 -266.5 108t-99.5 284zM283 1307l520 194l90 -248l-524 -178z" />
<glyph unicode="&#xfb;" horiz-adv-x="1183" d="M113 369v604h315v-543q0 -78 39 -121t111 -43q82 0 126 49.5t44 141.5v516h313v-973h-295v113q-90 -136 -287 -136q-167 0 -266.5 108t-99.5 284zM193 1266l313 227h168l313 -227l-131 -191l-266 180l-266 -180z" />
<glyph unicode="&#xfc;" horiz-adv-x="1183" d="M113 369v604h315v-543q0 -78 39 -121t111 -43q82 0 126 49.5t44 141.5v516h313v-973h-295v113q-90 -136 -287 -136q-167 0 -266.5 108t-99.5 284zM201 1133v292h305v-292h-305zM676 1133v292h303v-292h-303z" />
<glyph unicode="&#xfd;" horiz-adv-x="1138" d="M18 973h340l224 -658l196 658h338l-524 -1424h-328l182 439h-43zM262 1307l520 194l90 -248l-524 -178z" />
<glyph unicode="&#xfe;" horiz-adv-x="1245" d="M123 -451v1833h297v-512q44 64 120 92.5t162 28.5q101 0 191.5 -41.5t153.5 -111t100 -163.5t37 -196q0 -134 -63.5 -248t-175.5 -181.5t-247 -67.5q-95 0 -159.5 27t-118.5 79v-539h-297zM426 479q0 -96 64.5 -158.5t160.5 -62.5q94 0 158.5 66t64.5 155 q0 95 -64.5 164.5t-158.5 69.5q-96 0 -160.5 -66t-64.5 -168z" />
<glyph unicode="&#xff;" horiz-adv-x="1138" d="M18 973h340l224 -658l196 658h338l-524 -1424h-328l182 439h-43zM180 1133v292h305v-292h-305zM655 1133v292h303v-292h-303z" />
<glyph unicode="&#x152;" horiz-adv-x="2115" d="M70 664q0 189 87.5 345t249 248.5t363.5 92.5q213 0 381 -105v84h866v-274h-551v-250h502v-268h-502v-261h555v-276h-870v86q-167 -104 -381 -104q-147 0 -277 52.5t-223 143t-146.5 217t-53.5 269.5zM397 662q0 -161 106 -270t267 -109t267 110t106 271 q0 162 -105.5 273.5t-267.5 111.5q-163 0 -268 -113t-105 -274z" />
<glyph unicode="&#x153;" horiz-adv-x="1896" d="M61 487q0 104 39.5 196.5t109 160.5t169.5 107.5t215 39.5q230 0 379 -143q143 143 364 143q220 0 360 -143.5t140 -358.5q0 -45 -6 -83h-705q20 -80 84 -126.5t158 -46.5q148 0 227 95l185 -156q-69 -90 -179 -140t-239 -50q-238 0 -385 147q-154 -147 -383 -147 q-115 0 -215 40t-169.5 108.5t-109 161t-39.5 195.5zM371 487q0 -94 65 -161.5t158 -67.5q95 0 160 67.5t65 161.5t-65 161t-160 67q-93 0 -158 -67t-65 -161zM1130 588h416q-9 72 -68 118t-137 46q-76 0 -134.5 -44.5t-76.5 -119.5z" />
<glyph unicode="&#x178;" horiz-adv-x="1374" d="M10 1329h371l309 -528l305 528h361l-506 -813v-516h-326v518zM276 1477v309h320v-309h-320zM772 1477v309h320v-309h-320z" />
<glyph unicode="&#x2c6;" horiz-adv-x="1228" d="M123 1266l313 227h168l314 -227l-132 -191l-266 180l-264 -180z" />
<glyph unicode="&#x2dc;" horiz-adv-x="1228" d="M123 1118q0 152 65 236t193 84q56 0 110.5 -21t98 -42t72.5 -21q77 0 77 84h222q0 -153 -64.5 -236.5t-187.5 -83.5q-59 0 -113.5 21t-97 42t-72.5 21q-82 0 -82 -84h-221z" />
<glyph unicode="&#x2000;" horiz-adv-x="974" />
<glyph unicode="&#x2001;" horiz-adv-x="1948" />
<glyph unicode="&#x2002;" horiz-adv-x="974" />
<glyph unicode="&#x2003;" horiz-adv-x="1948" />
<glyph unicode="&#x2004;" horiz-adv-x="649" />
<glyph unicode="&#x2005;" horiz-adv-x="487" />
<glyph unicode="&#x2006;" horiz-adv-x="324" />
<glyph unicode="&#x2007;" horiz-adv-x="324" />
<glyph unicode="&#x2008;" horiz-adv-x="243" />
<glyph unicode="&#x2009;" horiz-adv-x="389" />
<glyph unicode="&#x200a;" horiz-adv-x="108" />
<glyph unicode="&#x2010;" horiz-adv-x="860" d="M106 446v267h648v-267h-648z" />
<glyph unicode="&#x2011;" horiz-adv-x="860" d="M106 446v267h648v-267h-648z" />
<glyph unicode="&#x2012;" horiz-adv-x="860" d="M106 446v267h648v-267h-648z" />
<glyph unicode="&#x2013;" horiz-adv-x="1265" d="M106 446v267h1053v-267h-1053z" />
<glyph unicode="&#x2014;" horiz-adv-x="1800" d="M106 446v267h1588v-267h-1588z" />
<glyph unicode="&#x2018;" horiz-adv-x="479" d="M57 915l140 457h215l-62 -457h-293z" />
<glyph unicode="&#x2019;" horiz-adv-x="466" d="M78 893l61 457h293l-139 -457h-215z" />
<glyph unicode="&#x201a;" horiz-adv-x="493" d="M61 -147l62 456h293l-140 -456h-215z" />
<glyph unicode="&#x201c;" horiz-adv-x="864" d="M61 893l138 457h215l-60 -457h-293zM442 893l140 457h215l-62 -457h-293z" />
<glyph unicode="&#x201d;" horiz-adv-x="849" d="M78 893l61 457h293l-139 -457h-215zM461 893l61 457h293l-139 -457h-215z" />
<glyph unicode="&#x201e;" horiz-adv-x="874" d="M61 -147l62 456h293l-140 -456h-215zM444 -147l60 456h295l-140 -456h-215z" />
<glyph unicode="&#x2022;" horiz-adv-x="856" d="M154 350v531h548v-531h-548z" />
<glyph unicode="&#x2026;" horiz-adv-x="1511" d="M102 0v315h332v-315h-332zM590 0v315h332v-315h-332zM1079 0v315h330v-315h-330z" />
<glyph unicode="&#x202f;" horiz-adv-x="389" />
<glyph unicode="&#x2039;" horiz-adv-x="714" d="M47 475l301 371h297l-297 -371l297 -371h-301z" />
<glyph unicode="&#x203a;" horiz-adv-x="714" d="M72 104l295 371l-295 371h297l299 -371l-295 -371h-301z" />
<glyph unicode="&#x205f;" horiz-adv-x="487" />
<glyph unicode="&#x20ac;" horiz-adv-x="1300" d="M47 414l66 196h106q-2 18 -2 56v28h-121l66 199h86q59 212 222 334.5t398 122.5q107 0 192.5 -20t172.5 -70l-133 -273q-106 62 -234 62q-192 0 -276 -156h461l-66 -199h-446v-28q0 -38 2 -56h430l-66 -196h-301q86 -131 262 -131q129 0 234 61l133 -272 q-87 -50 -172.5 -70t-192.5 -20q-227 0 -388 115.5t-226 316.5h-207z" />
<glyph unicode="&#x2122;" horiz-adv-x="1677" d="M57 1118v211h621v-211h-191v-440h-237v440h-193zM774 678v651h281l110 -401l111 401h280v-651h-198v377h-6l-105 -377h-166l-102 377h-6v-377h-199z" />
<glyph unicode="&#x25fc;" horiz-adv-x="972" d="M0 0v973h973v-973h-973z" />
</font>
</defs>
</svg>
