<?xml version="1.0" standalone="no"?>
<!DOCTYPE svg PUBLIC "-//W3C//DTD SVG 1.1//EN" "http://www.w3.org/Graphics/SVG/1.1/DTD/svg11.dtd" >
<svg xmlns="http://www.w3.org/2000/svg" xmlns:xlink="http://www.w3.org/1999/xlink" version="1.1">
<metadata></metadata>
<defs>
<font id="f37_moonextra_bold_it" horiz-adv-x="1261" >
<font-face units-per-em="2048" ascent="1638" descent="-410" />
<missing-glyph horiz-adv-x="415" />
<glyph unicode="&#xfb01;" horiz-adv-x="1310" d="M193 692l49 281h137l4 28q36 207 160.5 304.5t339.5 97.5q59 0 106 -6l-49 -273q-20 2 -51 2q-164 0 -184 -125l-7 -28h662l-172 -973h-320l123 692h-342l-123 -692h-319l123 692h-137zM1067 1126l55 306h320l-56 -306h-319z" />
<glyph unicode="&#xfb02;" horiz-adv-x="1308" d="M193 692l49 281h137l4 28q36 207 160.5 304.5t339.5 97.5q59 0 106 -6l-49 -273q-20 2 -51 2q-164 0 -184 -125l-7 -28h340l72 409h320l-244 -1382h-320l123 692h-340l-123 -692h-319l123 692h-137z" />
<glyph horiz-adv-x="0" />
<glyph horiz-adv-x="682" />
<glyph unicode=" "  horiz-adv-x="415" />
<glyph unicode="&#x09;" horiz-adv-x="415" />
<glyph unicode="&#xa0;" horiz-adv-x="415" />
<glyph unicode="!" horiz-adv-x="557" d="M127 0l51 293h305l-51 -293h-305zM274 459l17 485l65 385h312l-68 -385l-154 -485h-172z" />
<glyph unicode="&#x22;" horiz-adv-x="831" d="M274 893l43 457h293l-118 -457h-218zM657 893l43 457h293l-121 -457h-215z" />
<glyph unicode="#" horiz-adv-x="1159" d="M137 342l41 240h176l68 180h-133l43 239h184l84 220h223l-84 -220h176l84 220h226l-84 -220h119l-43 -239h-170l-68 -180h127l-43 -240h-178l-84 -219h-223l84 219h-177l-84 -219h-225l84 219h-123zM578 582h176l69 180h-176z" />
<glyph unicode="$" horiz-adv-x="1181" d="M94 223l248 195q53 -85 138 -125.5t182 -40.5q100 0 155 37t55 102q0 46 -33 78.5t-85.5 52t-116.5 38t-128 46t-116.5 66.5t-85.5 108.5t-33 163.5q0 160 120 270t319 132l39 217h258l-41 -230q214 -43 331 -203l-233 -194q-49 67 -120.5 106t-153.5 39 q-93 0 -149 -33.5t-56 -91.5q0 -35 33 -62t86 -47.5t117 -42.5t128 -53.5t117 -73t86 -108.5t33 -153q0 -97 -35.5 -175.5t-98.5 -130.5t-145 -83t-180 -41l-37 -217h-258l41 225q-264 41 -381 229z" />
<glyph unicode="%" horiz-adv-x="1843" d="M217 897q0 189 121.5 315.5t302.5 126.5q144 0 232 -90.5t88 -232.5q0 -116 -52 -214t-150.5 -158t-221.5 -60q-142 0 -231 88t-89 225zM434 926q0 -65 36 -103t97 -37q72 0 123 62.5t51 148.5q0 63 -35.5 101.5t-93.5 38.5q-73 0 -125.5 -62.5t-52.5 -148.5zM496 0 l831 1329h252l-829 -1329h-254zM1120 307q0 189 120.5 316t301.5 127q143 0 231.5 -91t88.5 -233q0 -116 -51.5 -214t-150 -158t-222.5 -60q-142 0 -230 88t-88 225zM1335 334q0 -63 36 -100.5t97 -36.5q72 -1 123 61.5t51 149.5q0 63 -35.5 101t-93.5 38 q-73 0 -125.5 -62.5t-52.5 -150.5z" />
<glyph unicode="&#x26;" horiz-adv-x="1292" d="M135 330q0 129 73.5 224t199.5 132q-64 41 -98 103.5t-34 136.5q0 197 149.5 310.5t410.5 113.5q84 0 178 -9l-49 -270q-55 8 -150 8q-107 0 -168 -41.5t-61 -113.5q0 -111 149 -111h185l22 123h289l-23 -123h154l-45 -260h-154l-49 -285h150l-47 -268h-658 q-194 0 -309 88.5t-115 241.5zM459 387q0 -119 166 -119h198l51 285h-186q-109 0 -169 -45t-60 -121z" />
<glyph unicode="'" horiz-adv-x="450" d="M274 893l43 457h293l-118 -457h-218z" />
<glyph unicode="(" horiz-adv-x="741" d="M150 385q0 147 37.5 286t113.5 268.5t201.5 240.5t290.5 186l133 -221q-73 -48 -128.5 -91t-121 -112.5t-107.5 -143.5t-71 -179t-29 -224q0 -158 57 -282.5t174 -237.5l-208 -217q-342 303 -342 727z" />
<glyph unicode=")" horiz-adv-x="741" d="M-2 -121q72 48 127 90.5t120.5 112.5t107.5 144t71 178.5t29 222.5q0 158 -57 283t-173 239l209 217q342 -306 342 -729q0 -146 -38 -285t-114 -268t-202 -240t-291 -186z" />
<glyph unicode="*" horiz-adv-x="778" d="M233 963l193 59l-168 65l139 185l119 -119l-2 182h221l-67 -186l157 123l84 -193l-182 -59l156 -59l-138 -185l-122 119l2 -184h-222l62 170l-150 -113z" />
<glyph unicode="+" d="M203 496l49 270h377l67 381h273l-68 -381h381l-47 -270h-381l-66 -379h-272l66 379h-379z" />
<glyph unicode="," horiz-adv-x="495" d="M39 -170l133 479h299l-211 -479h-221z" />
<glyph unicode="-" horiz-adv-x="860" d="M184 446l47 267h650l-47 -267h-650z" />
<glyph unicode="." horiz-adv-x="536" d="M102 0l58 315h329l-55 -315h-332z" />
<glyph unicode="/" horiz-adv-x="811" d="M41 0l668 1329h295l-670 -1329h-293z" />
<glyph unicode="0" horiz-adv-x="1241" d="M184 471l68 389q38 225 190 357.5t396 132.5q236 0 363.5 -138.5t90.5 -351.5l-69 -397q-42 -235 -189 -358t-397 -123q-236 0 -363 140.5t-90 348.5zM514 494q-19 -97 24.5 -153t133.5 -56q91 0 151.5 54t79.5 155l58 335q19 107 -26 162.5t-132 55.5q-193 0 -232 -218z " />
<glyph unicode="1" horiz-adv-x="753" d="M244 1028l53 301h545l-234 -1329h-338l183 1028h-209z" />
<glyph unicode="2" horiz-adv-x="1126" d="M84 0l43 242l569 479q41 34 63.5 54t50 51t40 62.5t12.5 65.5q0 51 -32.5 80t-94.5 29q-76 0 -121 -45.5t-59 -126.5h-311q37 215 167.5 337t356.5 122q193 0 302.5 -96t109.5 -259q0 -61 -18.5 -119t-44 -101.5t-71.5 -93t-81.5 -81t-92.5 -78.5l-268 -227h486l-54 -295 h-952z" />
<glyph unicode="3" horiz-adv-x="1099" d="M90 268l277 142q37 -160 213 -160q98 0 154.5 47t56.5 129q0 71 -47 110t-132 39h-90l-69 166l313 316h-459l47 272h840l-41 -229l-324 -320q129 -30 198 -119t69 -219q0 -219 -146.5 -339.5t-394.5 -120.5q-178 0 -304.5 73t-160.5 213z" />
<glyph unicode="4" horiz-adv-x="1234" d="M92 250l37 201l535 878h333l-491 -799h289l51 304h313l-53 -304h172l-49 -280h-172l-43 -250h-314l43 250h-651z" />
<glyph unicode="5" horiz-adv-x="1120" d="M109 274l284 148q32 -162 213 -162q90 0 147.5 50t57.5 132q0 67 -45 106.5t-127 39.5h-406l173 741h794l-49 -280h-508l-47 -199h133q179 0 289 -99.5t110 -275.5q0 -217 -149 -355t-393 -138q-188 0 -312 71t-165 221z" />
<glyph unicode="6" horiz-adv-x="1159" d="M147 399q0 121 58 233.5t160 231.5l393 465h356l-385 -444q32 4 51 4q185 0 300.5 -112.5t115.5 -280.5q0 -154 -76 -272t-206 -180t-291 -62q-213 0 -344.5 113t-131.5 304zM463 436q0 -78 53.5 -127t134.5 -49q100 0 164 57.5t64 157.5q0 75 -52 124.5t-133 49.5 q-105 0 -168 -60.5t-63 -152.5z" />
<glyph unicode="7" horiz-adv-x="1083" d="M145 0l711 1034h-618l49 295h979l-43 -252l-723 -1077h-355z" />
<glyph unicode="8" horiz-adv-x="1208" d="M147 360q0 143 71 242.5t202 151.5q-86 73 -86 198q0 174 134 286t353 112q189 0 296.5 -87.5t107.5 -224.5q0 -90 -46 -164t-130 -120q159 -89 159 -287q0 -211 -156.5 -348t-414.5 -137q-213 0 -351.5 108.5t-138.5 269.5zM469 414q0 -71 55 -115.5t140 -44.5 q100 0 164.5 54t64.5 145q0 70 -52.5 116.5t-138.5 46.5q-107 0 -170 -56.5t-63 -145.5zM635 961q0 -48 35 -78.5t94 -30.5q66 0 110 37.5t44 95.5q0 50 -36 80.5t-94 30.5q-66 0 -109.5 -37.5t-43.5 -97.5z" />
<glyph unicode="9" horiz-adv-x="1159" d="M197 834q0 154 77 272t206.5 180t289.5 62q214 0 345.5 -113t131.5 -305q0 -121 -58 -233.5t-159 -231.5l-393 -465h-356l383 444q-32 -4 -52 -4q-185 0 -300 112.5t-115 281.5zM514 854q0 -76 51.5 -125t134.5 -49q104 0 167 61t63 152q0 78 -54 127t-135 49 q-98 0 -162.5 -57.5t-64.5 -157.5z" />
<glyph unicode=":" horiz-adv-x="542" d="M106 0l56 315h332l-58 -315h-330zM219 643l57 315h330l-55 -315h-332z" />
<glyph unicode=";" horiz-adv-x="561" d="M63 -170l134 479h299l-211 -479h-222zM238 643l57 315h330l-56 -315h-331z" />
<glyph unicode="&#x3c;" horiz-adv-x="1267" d="M354 649l672 588l172 -199l-475 -405l317 -387l-221 -185z" />
<glyph unicode="=" d="M166 287l49 270h1030l-49 -270h-1030zM244 725l47 272h1032l-49 -272h-1030z" />
<glyph unicode="&#x3e;" horiz-adv-x="1271" d="M305 260l475 404l-317 389l219 184l467 -588l-674 -588z" />
<glyph unicode="?" horiz-adv-x="1034" d="M207 895q35 214 168 334.5t354 120.5q199 0 304.5 -91t105.5 -235q0 -68 -20.5 -125t-54 -96.5t-74 -72.5t-82 -59.5t-77 -50t-61 -50.5t-31.5 -56l-8 -55h-297l10 59q8 49 33.5 92.5t60 75.5t74.5 60.5t78 54.5t69.5 51.5t50.5 57t19 65.5q0 50 -34.5 75t-96.5 25 q-81 0 -131 -47.5t-65 -132.5h-295zM348 0l51 293h306l-52 -293h-305z" />
<glyph unicode="@" horiz-adv-x="2019" d="M123 254q0 175 47.5 331t139 281.5t219 217t294.5 141t357 49.5q248 0 443 -94.5t302 -260.5t107 -374q0 -153 -40.5 -278t-111.5 -207t-167.5 -126.5t-209.5 -44.5q-118 0 -200.5 46.5t-114.5 132.5q-105 -117 -256 -117q-153 0 -252.5 111.5t-99.5 271.5 q0 101 37.5 189t99.5 148.5t143.5 95t167.5 34.5q175 0 262 -131l19 110h272l-90 -514q-11 -63 12.5 -89.5t63.5 -26.5q79 0 133.5 103.5t54.5 276.5q0 230 -162 360t-440 130q-224 0 -395 -93t-264 -262t-93 -389q0 -237 144 -382.5t401 -145.5q101 0 175 12.5t157 46.5 l78 -241q-105 -44 -202.5 -59t-227.5 -15q-177 0 -327.5 57.5t-254.5 158.5t-162.5 242t-58.5 304zM860 358q0 -70 49.5 -116.5t120.5 -46.5q79 0 137 58t58 142q0 68 -47 114t-115 46q-85 0 -144 -57t-59 -140z" />
<glyph unicode="A" horiz-adv-x="1363" d="M16 0l707 1329h385l240 -1329h-316l-39 233h-514l-117 -233h-346zM618 512h332l-80 502z" />
<glyph unicode="B" horiz-adv-x="1236" d="M141 0l234 1329h534q176 0 279.5 -92t103.5 -240q0 -103 -50.5 -186t-147.5 -123q69 -38 108 -105.5t39 -150.5q0 -191 -137.5 -311.5t-358.5 -120.5h-604zM487 266h275q76 0 125 43.5t49 118.5q0 55 -33.5 89t-89.5 34h-276zM580 799h239q71 0 117.5 41t46.5 110 q0 47 -32 80t-87 33h-237z" />
<glyph unicode="C" horiz-adv-x="1396" d="M186 588q0 153 61 294t164.5 243.5t247.5 163.5t302 61q186 0 328 -82.5t218 -227.5l-297 -151q-41 75 -114 117.5t-168 42.5q-170 0 -290 -128.5t-120 -304.5q0 -144 84.5 -238.5t226.5 -94.5q197 0 326 153l260 -164q-116 -141 -273 -215.5t-343 -74.5q-273 0 -443 170 t-170 436z" />
<glyph unicode="D" horiz-adv-x="1445" d="M141 0l234 1329h489q136 0 253.5 -44.5t200 -122t129 -186.5t46.5 -235q0 -202 -108 -373t-290 -269.5t-393 -98.5h-561zM518 293h215q113 0 210.5 54t156.5 150.5t59 211.5q0 140 -89.5 233.5t-238.5 93.5h-182z" />
<glyph unicode="E" horiz-adv-x="1107" d="M141 0l234 1329h866l-47 -274h-551l-43 -250h502l-49 -268h-502l-45 -261h557l-49 -276h-873z" />
<glyph unicode="F" horiz-adv-x="1062" d="M141 0l234 1329h856l-47 -278h-531l-51 -285h485l-49 -279h-485l-86 -487h-326z" />
<glyph unicode="G" horiz-adv-x="1497" d="M186 588q0 153 62 294t166.5 243.5t250.5 163.5t306 61q157 0 278.5 -47t218.5 -150l-256 -221q-92 117 -266 117q-119 0 -218 -59.5t-154.5 -158.5t-55.5 -215q0 -144 91 -238.5t243 -94.5q126 0 218.5 59.5t135.5 165.5h-313l43 244h627q0 -222 -95 -398t-264 -274 t-381 -98q-187 0 -332.5 78t-225 215.5t-79.5 312.5z" />
<glyph unicode="H" horiz-adv-x="1394" d="M141 0l234 1329h325l-88 -508h459l88 508h326l-234 -1329h-325l94 526h-459l-94 -526h-326z" />
<glyph unicode="I" horiz-adv-x="610" d="M141 0l234 1329h325l-233 -1329h-326z" />
<glyph unicode="J" horiz-adv-x="1091" d="M33 170l225 236q77 -123 229 -123q98 0 159 61.5t87 196.5l139 788h326l-147 -835q-49 -276 -194 -394t-390 -118q-151 0 -262 52t-172 136z" />
<glyph unicode="K" horiz-adv-x="1290" d="M141 0l234 1329h323l-94 -532l492 532h395l-578 -598l392 -731h-359l-268 494l-152 -150l-61 -344h-324z" />
<glyph unicode="L" horiz-adv-x="1050" d="M141 0l234 1329h342l-180 -1028h532l-53 -301h-875z" />
<glyph unicode="M" horiz-adv-x="1783" d="M141 0l234 1329h436l139 -946l473 946h453l-234 -1329h-309l154 872l-434 -872h-322l-127 868l-153 -868h-310z" />
<glyph unicode="N" horiz-adv-x="1509" d="M141 0l234 1329h305l467 -821l143 821h312l-234 -1329h-285l-479 852l-151 -852h-312z" />
<glyph unicode="O" horiz-adv-x="1556" d="M184 588q0 153 63 294t169.5 243.5t253.5 163.5t307 61q279 0 454 -171.5t175 -437.5q0 -207 -108 -382t-290 -276t-393 -101q-184 0 -328 77.5t-223.5 216t-79.5 312.5zM518 616q0 -144 90.5 -238.5t237.5 -94.5q113 0 210.5 55.5t156.5 154t59 216.5q0 146 -89.5 243 t-238.5 97q-116 0 -214.5 -59.5t-155 -159t-56.5 -214.5z" />
<glyph unicode="P" horiz-adv-x="1200" d="M141 0l234 1329h489q208 0 330.5 -111.5t122.5 -285.5q0 -165 -77 -287t-209 -184t-300 -62h-192l-72 -399h-326zM588 676h180q101 0 163 60.5t62 156.5q0 75 -43 117.5t-119 42.5h-178z" />
<glyph unicode="Q" horiz-adv-x="1540" d="M184 588q0 153 63 294t169.5 243.5t253.5 163.5t307 61q279 0 454 -171.5t175 -437.5q0 -164 -70 -310t-193 -253l97 -145l-246 -168l-109 164q-127 -47 -270 -47q-184 0 -328 77.5t-223.5 216t-79.5 312.5zM518 616q0 -144 90.5 -238.5t237.5 -94.5q32 0 67 6l-135 205 l248 168l148 -226q98 119 98 273q0 146 -89.5 243t-238.5 97q-116 0 -214.5 -59.5t-155 -159t-56.5 -214.5z" />
<glyph unicode="R" horiz-adv-x="1236" d="M141 0l234 1329h481q215 0 333 -110t118 -285q0 -149 -77 -260.5t-216 -165.5l174 -508h-348l-148 461h-151l-82 -461h-318zM584 700h174q104 0 167.5 58t63.5 149q0 73 -44 115.5t-128 42.5h-170z" />
<glyph unicode="S" horiz-adv-x="1189" d="M80 223l252 205q54 -85 140 -125.5t185 -40.5q97 0 153 35t56 94q0 46 -33 78.5t-86 52t-117 38t-128 46t-117 66.5t-86 108.5t-33 163.5q0 178 147.5 292t387.5 114q168 0 299.5 -56.5t206.5 -163.5l-240 -202q-45 66 -118 104.5t-156 38.5q-93 0 -148 -30.5t-55 -84.5 q0 -35 33.5 -62t86.5 -47.5t117.5 -42.5t129 -53.5t117.5 -73t86.5 -108.5t33.5 -153q0 -107 -44 -191.5t-120.5 -136.5t-175.5 -79t-213 -27q-202 0 -341 57.5t-220 183.5z" />
<glyph unicode="T" horiz-adv-x="1216" d="M217 1034l51 295h1149l-53 -295h-410l-182 -1034h-326l183 1034h-412z" />
<glyph unicode="U" horiz-adv-x="1460" d="M227 569l133 760h326l-131 -741q-8 -48 -9 -88q0 -90 43 -142q61 -75 195 -75q133 0 215.5 72.5t110.5 232.5l131 741h326l-133 -760q-55 -311 -227 -449t-453 -138q-137 0 -246 39t-180.5 112.5t-99.5 185.5q-14 58 -14 122q0 61 13 128z" />
<glyph unicode="V" horiz-adv-x="1398" d="M248 1329h342l160 -999l514 999h354l-719 -1329h-399z" />
<glyph unicode="W" horiz-adv-x="2099" d="M248 1329h340l74 -973l440 973h350l96 -973l420 973h350l-632 -1329h-383l-101 870l-405 -870h-383z" />
<glyph unicode="X" horiz-adv-x="1288" d="M2 0l567 686l-317 643h362l185 -411l325 411h381l-551 -659l332 -670h-356l-195 426l-346 -426h-387z" />
<glyph unicode="Y" horiz-adv-x="1374" d="M244 1329h358l219 -528l396 528h372l-647 -813l-92 -516h-326l92 518z" />
<glyph unicode="Z" horiz-adv-x="1196" d="M82 0l43 248l741 796h-600l51 285h1031l-41 -248l-740 -796h598l-51 -285h-1032z" />
<glyph unicode="[" horiz-adv-x="780" d="M82 -324l291 1653h588l-48 -260h-284l-199 -1132h285l-45 -261h-588z" />
<glyph unicode="\" horiz-adv-x="786" d="M274 1329h269l202 -1329h-268z" />
<glyph unicode="]" horiz-adv-x="780" d="M-2 -324l47 261h285l198 1132h-284l47 260h586l-291 -1653h-588z" />
<glyph unicode="^" d="M219 580l481 749h328l219 -749h-291l-127 501l-299 -501h-311z" />
<glyph unicode="_" horiz-adv-x="1171" d="M23 -322l47 267h1013l-47 -267h-1013z" />
<glyph unicode="`" horiz-adv-x="1228" d="M344 1253l107 248l489 -201l-102 -225z" />
<glyph unicode="a" horiz-adv-x="1245" d="M139 434q0 121 44 226.5t117 177t167.5 112.5t194.5 41q206 0 305 -153l24 135h303l-172 -973h-303l19 104q-119 -122 -285 -122q-118 0 -213.5 61.5t-148 165t-52.5 225.5zM449 465q0 -90 59.5 -148.5t146.5 -58.5q99 0 170.5 73t71.5 177q0 89 -58 148t-141 59 q-103 0 -176 -73t-73 -177z" />
<glyph unicode="b" horiz-adv-x="1245" d="M123 0l244 1382h301l-90 -516q122 125 286 125q178 0 295 -132t117 -320q0 -121 -43.5 -226.5t-116 -177t-167 -112.5t-195.5 -41q-205 0 -305 155l-25 -137h-301zM520 465q0 -89 58 -148t141 -59q103 0 175.5 73t72.5 177q0 90 -59.5 148.5t-145.5 58.5 q-99 0 -170.5 -73t-71.5 -177z" />
<glyph unicode="c" horiz-adv-x="1036" d="M139 434q0 162 78 290.5t208.5 197.5t287.5 69q144 0 252 -60.5t172 -166.5l-254 -164q-24 55 -73.5 85t-111.5 30q-103 0 -174 -73t-71 -177q0 -90 57.5 -148.5t144.5 -58.5q64 0 118.5 30t90.5 83l215 -178q-179 -211 -452 -211q-216 0 -352 131.5t-136 320.5z" />
<glyph unicode="d" horiz-adv-x="1245" d="M139 434q0 121 44 226.5t117 177t167.5 112.5t194.5 41q206 0 305 -153l96 544h303l-244 -1382h-303l19 104q-119 -122 -285 -122q-118 0 -213.5 61.5t-148 165t-52.5 225.5zM449 465q0 -90 59.5 -148.5t146.5 -58.5q99 0 170.5 73t71.5 177q0 89 -58 148t-141 59 q-103 0 -176 -73t-73 -177z" />
<glyph unicode="e" horiz-adv-x="1130" d="M141 442q0 158 75 284t203 195.5t283 69.5q208 0 336.5 -123.5t128.5 -302.5q0 -73 -24 -159h-701q18 -77 76 -122.5t150 -45.5q103 0 204 84l183 -179q-102 -91 -199.5 -126t-226.5 -35q-107 0 -198.5 36.5t-155 98.5t-99 146t-35.5 179zM455 588h419q-15 72 -67 117 t-125 45q-79 0 -139 -43t-88 -119z" />
<glyph unicode="f" horiz-adv-x="782" d="M193 692l49 281h137l4 28q36 207 160.5 304.5t339.5 97.5q59 0 106 -6l-49 -273q-20 2 -51 2q-164 0 -184 -125l-7 -28h215l-49 -281h-215l-123 -692h-319l123 692h-137z" />
<glyph unicode="g" horiz-adv-x="1243" d="M59 -352l154 246q131 -95 299 -95q272 0 317 254l11 51q-122 -122 -287 -122q-178 0 -295 132t-117 320q0 121 44 226.5t116.5 177t167 112.5t195.5 41q205 0 305 -155l24 137h301l-164 -924q-47 -266 -206 -393t-432 -127q-126 0 -241.5 31t-191.5 88zM451 465 q0 -90 59.5 -148.5t146.5 -58.5q98 0 170 73.5t72 176.5q0 89 -59 148t-142 59q-103 0 -175 -73t-72 -177z" />
<glyph unicode="h" horiz-adv-x="1191" d="M123 0l244 1382h299l-91 -520q52 64 127 96.5t156 32.5q187 0 272 -112q58 -77 59 -204q0 -59 -13 -128l-97 -547h-319l92 522q5 27 5 50q-1 50 -23 80q-32 44 -105 44q-72 0 -126.5 -47t-67.5 -129l-93 -520h-319z" />
<glyph unicode="i" horiz-adv-x="565" d="M123 0l172 973h319l-172 -973h-319zM322 1126l55 306h319l-55 -306h-319z" />
<glyph unicode="j" horiz-adv-x="565" d="M-143 -467l49 281q25 -2 47 -2q136 0 164 159l176 1002h319l-174 -1000q-23 -127 -60.5 -212t-96.5 -136.5t-135.5 -73.5t-182.5 -22q-73 0 -106 4zM322 1126l53 306h319l-53 -306h-319z" />
<glyph unicode="k" horiz-adv-x="1132" d="M123 0l244 1382h319l-129 -735l346 326h383l-457 -424l326 -549h-336l-215 342l-121 -115l-41 -227h-319z" />
<glyph unicode="l" horiz-adv-x="565" d="M123 0l244 1382h319l-244 -1382h-319z" />
<glyph unicode="m" horiz-adv-x="1769" d="M123 0l172 973h299l-19 -109q110 127 283 127q103 0 172.5 -42t102.5 -118q120 160 333 160q124 0 200 -60q76 -61 98 -157q11 -49 12 -104q0 -54 -11 -115l-98 -555h-319l92 522q5 28 5 52q1 46 -19 76q-30 46 -99 46q-63 0 -115.5 -52t-64.5 -124l-92 -520h-320l92 522 q5 28 5 52q0 46 -19 76q-29 46 -98 46q-63 0 -115.5 -52t-64.5 -124v4l-93 -524h-319z" />
<glyph unicode="n" horiz-adv-x="1191" d="M123 0l172 973h299l-19 -111q52 64 127 96.5t156 32.5q187 0 272 -112q58 -77 59 -204q0 -59 -13 -128l-97 -547h-319l92 522q5 27 5 50q-1 50 -23 80q-32 44 -105 44q-72 0 -126.5 -47t-67.5 -129l-93 -520h-319z" />
<glyph unicode="o" horiz-adv-x="1189" d="M141 440q0 159 79.5 286t213 196t293.5 69q218 0 357 -132t139 -322q0 -162 -80 -290t-213.5 -196.5t-294.5 -68.5q-142 0 -256 62.5t-176 166.5t-62 229zM455 465q0 -90 60 -148.5t147 -58.5q103 0 175 73t72 177q0 90 -60 148.5t-147 58.5q-103 0 -175 -73t-72 -177z " />
<glyph unicode="p" horiz-adv-x="1247" d="M43 -451l252 1424h301l-18 -107q122 125 286 125q178 0 295 -132t117 -320q0 -121 -43.5 -226.5t-116 -177t-167 -112.5t-195.5 -41q-205 0 -305 155l-105 -588h-301zM520 465q0 -89 58 -148t141 -59q103 0 175.5 73t72.5 177q0 90 -59.5 148.5t-145.5 58.5 q-99 0 -170.5 -73t-71.5 -177z" />
<glyph unicode="q" horiz-adv-x="1245" d="M139 434q0 121 44 226.5t117 177t167.5 112.5t194.5 41q206 0 305 -153l24 135h303l-252 -1424h-301l99 557q-124 -124 -287 -124q-118 0 -213.5 61.5t-148 165t-52.5 225.5zM449 465q0 -90 59.5 -148.5t146.5 -58.5q99 0 170.5 73t71.5 177q0 89 -58 148t-141 59 q-103 0 -176 -73t-73 -177z" />
<glyph unicode="r" horiz-adv-x="782" d="M123 0l172 973h305l-31 -172q90 190 344 190l-59 -336q-16 2 -49 2q-37 0 -78 -12.5t-85.5 -39t-79 -78t-46.5 -119.5l-72 -408h-321z" />
<glyph unicode="s" horiz-adv-x="970" d="M80 207l270 129q22 -55 69.5 -86t112.5 -31q58 0 89.5 17t31.5 49q0 26 -25 45t-64.5 32.5t-87.5 27.5t-96 36t-87.5 51.5t-64.5 80t-25 116.5q0 142 116 230.5t306 88.5q145 0 248.5 -52.5t150.5 -149.5l-268 -129q-30 94 -135 94q-46 0 -75.5 -18.5t-29.5 -47.5 q0 -25 25 -44t64.5 -33.5t88 -30t96.5 -38t87.5 -52t64.5 -77.5t25 -110q0 -153 -118 -238t-329 -85q-338 0 -440 225z" />
<glyph unicode="t" horiz-adv-x="788" d="M170 692l49 281h174l43 248h320l-43 -248h217l-49 -281h-217l-123 -692h-320l123 692h-174z" />
<glyph unicode="u" horiz-adv-x="1185" d="M180 426l96 547h320l-92 -522q-5 -27 -4 -50q0 -50 22 -80q32 -45 105 -45q72 0 126.5 47.5t67.5 129.5l92 520h320l-172 -973h-299l18 111q-52 -64 -126.5 -96.5t-155.5 -32.5q-187 0 -272 112q-58 77 -58 204q0 59 12 128z" />
<glyph unicode="v" horiz-adv-x="1122" d="M188 973h324l100 -627l320 627h344l-549 -973h-334z" />
<glyph unicode="w" horiz-adv-x="1691" d="M190 973h322l53 -611l283 611h319l72 -611l270 611h338l-504 -973h-321l-70 588l-274 -588h-330z" />
<glyph unicode="x" horiz-adv-x="1069" d="M2 0l440 498l-249 475h342l120 -250l209 250h357l-420 -477l266 -496h-342l-133 266l-225 -266h-365z" />
<glyph unicode="y" horiz-adv-x="1138" d="M176 -451l266 441h-41l-219 983h334l117 -662l305 662h360l-788 -1424h-334z" />
<glyph unicode="z" horiz-adv-x="976" d="M84 0l45 258l481 455h-397l47 260h805l-47 -256l-479 -457h403l-47 -260h-811z" />
<glyph unicode="{" horiz-adv-x="819" d="M111 383l43 240q105 4 156 53t71 160l39 217q24 137 102 206.5t221 69.5h256l-45 -252h-127q-108 0 -129 -125l-30 -168q-21 -114 -82 -180.5t-166 -99.5q91 -34 129.5 -106.5t19.5 -176.5l-30 -168q-21 -125 88 -125h127l-45 -252h-238q-129 0 -197.5 82t-46.5 197 l37 215q20 110 -14 158.5t-139 54.5z" />
<glyph unicode="|" horiz-adv-x="575" d="M102 -201l271 1530h299l-271 -1530h-299z" />
<glyph unicode="}" horiz-adv-x="819" d="M-2 -324l45 252h129q106 0 127 125l31 168q21 114 82.5 181t165.5 100q-91 34 -130 106t-20 176l31 168q21 125 -88 125h-127l47 252h235q129 0 197.5 -81.5t46.5 -196.5l-37 -215q-20 -109 14.5 -158t139.5 -55l-43 -240q-105 -4 -156.5 -53t-71.5 -160l-38 -217 q-24 -137 -102.5 -207t-221.5 -70h-256z" />
<glyph unicode="~" d="M186 502q25 153 111.5 236t232.5 83q104 0 238 -36.5t193 -36.5q72 0 81 73h275q-58 -319 -344 -319q-100 0 -236.5 36.5t-183.5 36.5q-84 0 -96 -73h-271z" />
<glyph unicode="&#xa1;" horiz-adv-x="536" d="M49 -356l70 385l155 485h170l-16 -485l-68 -385h-311zM236 682l51 291h305l-51 -291h-305z" />
<glyph unicode="&#xa2;" horiz-adv-x="1042" d="M186 621q0 195 117.5 331t302.5 172l37 205h266l-39 -217q158 -50 238 -188l-242 -156q-24 48 -66.5 75t-97.5 27q-92 0 -154.5 -64.5t-62.5 -158.5q0 -78 52.5 -129t128.5 -51q117 0 184 98l207 -170q-144 -166 -346 -190l-37 -205h-266l43 236q-122 47 -193.5 151 t-71.5 234z" />
<glyph unicode="&#xa3;" horiz-adv-x="1136" d="M90 0l45 254q65 47 95 70t71.5 65t63.5 82h-179l43 254h133q-51 100 -51 195q0 185 137.5 307.5t354.5 122.5q99 0 178 -22.5t130 -63t83 -96.5t37.5 -122.5t-6.5 -140.5h-314q11 60 -21.5 107t-103.5 47q-73 0 -119 -40t-46 -120q0 -22 5.5 -48t9.5 -39.5t17 -47 t15 -39.5h360l-45 -254h-328q-55 -102 -172 -178h621l-51 -293h-963z" />
<glyph unicode="&#xa4;" horiz-adv-x="1286" d="M150 317l184 158q-41 80 -41 174q0 158 90 281l-121 147l207 176l131 -157q98 39 211 39q122 0 221 -52l185 156l159 -188l-168 -146q39 -80 39 -172q0 -167 -102 -297l119 -145l-207 -174l-137 164q-97 -33 -193 -33q-123 0 -217 51l-201 -170zM575 672q0 -75 51 -124.5 t124 -49.5q90 0 151.5 61.5t61.5 149.5q0 75 -51 124.5t-124 49.5q-89 0 -151 -61t-62 -150z" />
<glyph unicode="&#xa5;" horiz-adv-x="1441" d="M193 285l34 198h418l6 35l-55 119h-342l35 199h217l-225 493h356l221 -528l393 528h375l-393 -493h215l-35 -199h-340l-96 -121l-6 -33h413l-32 -198h-416l-49 -285h-326l49 285h-417z" />
<glyph unicode="&#xa6;" horiz-adv-x="575" d="M102 -201l103 584h299l-103 -584h-299zM270 745l103 584h299l-103 -584h-299z" />
<glyph unicode="&#xa7;" horiz-adv-x="1073" d="M70 -61l211 167q87 -122 243 -122q172 0 172 86q0 34 -29 61t-75 47t-101.5 40t-111 46.5t-101.5 60.5t-75 88.5t-29 123.5q0 91 53.5 161.5t151.5 112.5q-90 76 -90 203q0 149 132.5 242.5t346.5 93.5q135 0 250 -50t174 -133l-207 -170q-84 119 -237 119 q-175 0 -175 -100q0 -31 29 -55t75 -41.5t101.5 -36t111.5 -45t102 -60t75 -89t29 -126.5q0 -91 -54 -162t-155 -114q94 -77 94 -199q0 -155 -131.5 -246.5t-341.5 -91.5q-148 0 -265.5 50.5t-172.5 138.5zM446 561q0 -15 3.5 -28.5t13.5 -25.5t18.5 -21.5t27 -20t29.5 -17 t36.5 -17t37.5 -15t42 -15.5t42 -16q60 19 93.5 57.5t33.5 89.5q0 17 -4 32t-14 28t-18.5 23t-27.5 20.5t-30.5 17.5t-36.5 16.5t-37.5 14t-42 15t-41.5 14.5q-60 -19 -92.5 -58.5t-32.5 -93.5z" />
<glyph unicode="&#xa8;" horiz-adv-x="1228" d="M367 1133l51 292h303l-51 -292h-303zM840 1133l53 292h303l-51 -292h-305z" />
<glyph unicode="&#xa9;" horiz-adv-x="1556" d="M184 588q0 154 63 295t169.5 243.5t253 163t307.5 60.5q279 0 454 -171.5t175 -437.5q0 -207 -107.5 -382t-289.5 -276t-394 -101q-277 0 -454 170.5t-177 435.5zM389 602q0 -190 123.5 -315t321.5 -125q112 0 216 44t181 118t123.5 178t46.5 219q0 192 -121 320 t-319 128q-156 0 -288.5 -77.5t-208 -207.5t-75.5 -282zM510 627q0 183 123 299t305 116q107 0 188.5 -45.5t128.5 -124.5l-186 -118q-22 38 -59.5 60t-83.5 22q-77 0 -131 -54.5t-54 -132.5q0 -68 43.5 -111.5t110.5 -43.5q95 0 162 79l155 -129q-136 -157 -340 -157 q-160 0 -261 99t-101 241z" />
<glyph unicode="&#xaa;" horiz-adv-x="942" d="M233 956q0 164 109 274.5t266 110.5q143 0 213 -96l15 84h227l-119 -670h-229l12 72q-87 -84 -207 -84q-122 0 -204.5 89.5t-82.5 219.5zM479 977q0 -52 32 -83.5t85 -31.5q59 0 99 43t40 107q0 52 -32.5 83t-84.5 31q-60 0 -99.5 -42.5t-39.5 -106.5z" />
<glyph unicode="&#xab;" horiz-adv-x="1185" d="M131 475l367 371h301l-373 -383l223 -359h-287zM596 475l367 371h301l-373 -383l223 -359h-287z" />
<glyph unicode="&#xac;" d="M197 496l47 270h1030l-47 -270l-51 -291h-287l51 291h-743z" />
<glyph unicode="&#xad;" horiz-adv-x="860" d="M184 446l47 267h650l-47 -267h-650z" />
<glyph unicode="&#xae;" horiz-adv-x="1556" d="M184 588q0 154 63 295t169.5 243.5t253 163t307.5 60.5q279 0 454 -171.5t175 -437.5q0 -207 -107.5 -382t-289.5 -276t-394 -101q-277 0 -454 170.5t-177 435.5zM389 602q0 -190 123.5 -315t321.5 -125q112 0 216 44t181 118t123.5 178t46.5 219q0 192 -121 320 t-319 128q-156 0 -288.5 -77.5t-208 -207.5t-75.5 -282zM571 326l127 710h281q117 0 187.5 -58t70.5 -165q0 -76 -46.5 -137t-125.5 -92l104 -258h-225l-72 233h-49l-43 -233h-209zM850 717h86q42 0 68 22t26 60q0 65 -69 65h-84z" />
<glyph unicode="&#xaf;" horiz-adv-x="1228" d="M328 1161l43 246h708l-43 -246h-708z" />
<glyph unicode="&#xb0;" horiz-adv-x="788" d="M240 991q0 146 105 247t257 101q126 0 215.5 -84.5t89.5 -205.5q0 -145 -106 -244.5t-258 -99.5q-127 0 -215 82.5t-88 203.5zM449 1010q0 -46 32.5 -77.5t81.5 -31.5q56 0 95.5 37.5t39.5 91.5q0 46 -32.5 78.5t-79.5 32.5q-57 0 -97 -38.5t-40 -92.5z" />
<glyph unicode="&#xb1;" d="M123 37l47 270h1030l-47 -270h-1030zM236 688l49 270h379l51 291h272l-51 -291h379l-47 -270h-381l-49 -282h-271l49 282h-380z" />
<glyph unicode="&#xb2;" horiz-adv-x="821" d="M197 545l32 180l299 205q70 46 99.5 75.5t29.5 63.5q0 53 -59 53q-69 0 -82 -78h-240q28 147 118 223t237 76q134 0 205 -59.5t71 -165.5q0 -95 -60.5 -167t-166.5 -138l-80 -51l260 4l-37 -221h-626z" />
<glyph unicode="&#xb3;" horiz-adv-x="763" d="M188 756l228 82q12 -88 98 -88q38 0 60 18t22 49t-21.5 48.5t-58.5 17.5h-20l-56 112l150 125h-285l37 209h553l-35 -199l-160 -149q65 -21 97 -68t32 -110q0 -125 -92.5 -199t-234.5 -74q-140 0 -222.5 61.5t-91.5 164.5z" />
<glyph unicode="&#xb4;" horiz-adv-x="1228" d="M330 1307l551 198l73 -252l-555 -178z" />
<glyph unicode="&#xb5;" horiz-adv-x="1183" d="M74 -270l219 1243h313l-90 -516q-15 -91 21 -141t122 -50q145 0 172 168l97 539h313l-104 -596q-72 -400 -418 -400q-219 0 -281 136l-67 -383h-297z" />
<glyph unicode="&#xb6;" horiz-adv-x="1361" d="M201 840q0 211 135.5 350t357.5 139h813l-43 -248h-106l-228 -1282h-241l225 1282h-166l-225 -1282h-256l121 688h-41q-163 0 -254.5 97t-91.5 256z" />
<glyph unicode="&#xb7;" horiz-adv-x="542" d="M178 401l55 318h330l-55 -318h-330z" />
<glyph unicode="&#xb8;" horiz-adv-x="1228" d="M47 -436l133 131q13 -21 45 -36t62 -15q86 0 86 57q0 51 -72 51h-164l144 273h170l-64 -121h21q72 0 122 -50t50 -133q0 -108 -81.5 -174.5t-219.5 -66.5q-153 0 -232 84z" />
<glyph unicode="&#xb9;" horiz-adv-x="628" d="M238 1077l45 252h465l-138 -784h-282l94 532h-184z" />
<glyph unicode="&#xba;" horiz-adv-x="858" d="M231 956q0 109 55 198t147 138t200 49q155 0 249.5 -88.5t94.5 -220.5q0 -167 -118 -276t-284 -109q-154 0 -249 88.5t-95 220.5zM477 977q0 -50 32.5 -81.5t82.5 -31.5q58 0 97.5 42.5t39.5 105.5q0 51 -31.5 81.5t-81.5 30.5q-59 0 -99 -42t-40 -105z" />
<glyph unicode="&#xbb;" horiz-adv-x="1185" d="M90 104l373 383l-223 359h286l232 -371l-365 -371h-303zM555 104l373 383l-223 359h286l232 -371l-365 -371h-303z" />
<glyph unicode="&#xbc;" horiz-adv-x="1740" d="M238 1077l45 252h467l-140 -784h-282l94 532h-184zM385 0l832 1329h251l-829 -1329h-254zM1102 137l41 223l203 424h266l-213 -424h131l29 166h245l-28 -159h73l-41 -230h-71l-25 -137h-248l25 137h-387z" />
<glyph unicode="&#xbd;" horiz-adv-x="1728" d="M238 1077l45 252h467l-140 -784h-282l94 532h-184zM387 0l830 1329h253l-831 -1329h-252zM1130 0l33 180l299 203q71 48 100 77.5t29 63.5q0 54 -57 54q-68 0 -84 -80h-238q26 148 116.5 224.5t236.5 76.5q136 0 206 -60t70 -168q0 -94 -60 -166t-167 -137l-82 -53l264 4 l-39 -219h-627z" />
<glyph unicode="&#xbe;" horiz-adv-x="1861" d="M184 756l228 82q12 -88 98 -88q38 0 60 18t22 49t-21.5 48.5t-58.5 17.5h-20l-56 112l150 125h-285l37 209h553l-35 -199l-160 -149q65 -21 97 -68t32 -110q0 -125 -92.5 -199t-234.5 -74q-140 0 -222.5 61.5t-91.5 164.5zM508 0l829 1329h252l-829 -1329h-252zM1225 137 l39 223l204 424h265l-213 -424h131l28 166h248l-29 -159h72l-39 -230h-73l-25 -137h-246l25 137h-387z" />
<glyph unicode="&#xbf;" horiz-adv-x="1015" d="M53 -51q0 68 20.5 125t54 96.5t74 72.5t82 59.5t77 50t61 50.5t31.5 56l10 55h295l-10 -59q-10 -67 -54 -123.5t-98.5 -95t-108 -73.5t-89.5 -76.5t-36 -88.5q0 -50 35 -75t97 -25q82 0 132 47.5t64 132.5h297q-36 -214 -169.5 -334.5t-354.5 -120.5q-198 0 -304 91.5 t-106 234.5zM487 682l54 291h305l-53 -291h-306z" />
<glyph unicode="&#xc0;" horiz-adv-x="1363" d="M16 0l707 1329h385l240 -1329h-316l-39 233h-514l-117 -233h-346zM618 512h332l-80 502zM655 1591l107 248l489 -201l-104 -225z" />
<glyph unicode="&#xc1;" horiz-adv-x="1363" d="M16 0l707 1329h385l240 -1329h-316l-39 233h-514l-117 -233h-346zM618 512h332l-80 502zM645 1645l551 198l72 -252l-555 -178z" />
<glyph unicode="&#xc2;" horiz-adv-x="1363" d="M16 0l707 1329h385l240 -1329h-316l-39 233h-514l-117 -233h-346zM567 1608l357 227h157l281 -227l-158 -183l-225 168l-303 -180zM618 512h332l-80 502z" />
<glyph unicode="&#xc3;" horiz-adv-x="1363" d="M16 0l707 1329h385l240 -1329h-316l-39 233h-514l-117 -233h-346zM524 1485q20 151 96.5 235t196.5 84q64 0 117 -18t94.5 -36.5t77.5 -18.5q39 0 57.5 17t24.5 56h231q-25 -154 -98.5 -236.5t-192.5 -82.5q-65 0 -118.5 18.5t-94.5 37t-77 18.5q-69 0 -82 -74h-232z M618 512h332l-80 502z" />
<glyph unicode="&#xc4;" horiz-adv-x="1363" d="M16 0l707 1329h385l240 -1329h-316l-39 233h-514l-117 -233h-346zM535 1477l55 309h319l-55 -309h-319zM618 512h332l-80 502zM1030 1477l55 309h320l-55 -309h-320z" />
<glyph unicode="&#xc5;" horiz-adv-x="1363" d="M16 0l707 1329h385l240 -1329h-316l-39 233h-514l-117 -233h-346zM618 512h332l-80 502zM686 1645q0 122 90 212.5t230 90.5q118 0 191 -67t73 -173q0 -120 -91 -210.5t-231 -90.5q-116 0 -189 65.5t-73 172.5zM885 1663q0 -35 21.5 -55.5t60.5 -20.5q44 0 75 30t31 73 q0 35 -22 56t-62 21q-44 0 -74 -31.5t-30 -72.5z" />
<glyph unicode="&#xc6;" horiz-adv-x="1886" d="M-33 0l1012 1329h1042l-47 -274h-551l-45 -250h502l-47 -268h-502l-45 -261h555l-49 -276h-870l43 248h-443l-184 -248h-371zM729 526h285l88 502z" />
<glyph unicode="&#xc7;" horiz-adv-x="1372" d="M186 588q0 153 61 294t164.5 243.5t247.5 163.5t302 61q186 0 328 -82.5t218 -227.5l-297 -151q-41 75 -114 117.5t-168 42.5q-170 0 -290 -128.5t-120 -304.5q0 -144 84.5 -238.5t226.5 -94.5q197 0 326 153l260 -164q-114 -139 -267.5 -213t-334.5 -77l-41 -78h21 q72 0 122 -50t50 -133q0 -108 -81.5 -174.5t-219.5 -66.5q-153 0 -232 84l133 131q13 -21 45.5 -36t63.5 -15q84 0 84 57q0 51 -70 51h-166l131 244q-214 44 -340.5 204.5t-126.5 387.5z" />
<glyph unicode="&#xc8;" horiz-adv-x="1107" d="M141 0l234 1329h866l-47 -274h-551l-43 -250h502l-49 -268h-502l-45 -261h557l-49 -276h-873zM580 1591l106 248l490 -201l-103 -225z" />
<glyph unicode="&#xc9;" horiz-adv-x="1107" d="M141 0l234 1329h866l-47 -274h-551l-43 -250h502l-49 -268h-502l-45 -261h557l-49 -276h-873zM569 1645l551 198l74 -252l-555 -178z" />
<glyph unicode="&#xca;" horiz-adv-x="1107" d="M141 0l234 1329h866l-47 -274h-551l-43 -250h502l-49 -268h-502l-45 -261h557l-49 -276h-873zM492 1608l358 227h158l280 -227l-160 -183l-225 168l-301 -180z" />
<glyph unicode="&#xcb;" horiz-adv-x="1107" d="M141 0l234 1329h866l-47 -274h-551l-43 -250h502l-49 -268h-502l-45 -261h557l-49 -276h-873zM461 1477l53 309h322l-56 -309h-319zM954 1477l56 309h319l-53 -309h-322z" />
<glyph unicode="&#xcc;" horiz-adv-x="610" d="M141 0l234 1329h325l-233 -1329h-326zM276 1591l109 248l487 -201l-102 -225z" />
<glyph unicode="&#xcd;" horiz-adv-x="610" d="M141 0l234 1329h325l-233 -1329h-326zM268 1645l551 198l72 -252l-555 -178z" />
<glyph unicode="&#xce;" horiz-adv-x="610" d="M141 0l234 1329h325l-233 -1329h-326zM190 1608l357 227h158l280 -227l-160 -183l-225 168l-301 -180z" />
<glyph unicode="&#xcf;" horiz-adv-x="610" d="M141 0l234 1329h325l-233 -1329h-326zM158 1477l55 309h319l-55 -309h-319zM653 1477l54 309h321l-55 -309h-320z" />
<glyph unicode="&#xd0;" horiz-adv-x="1478" d="M154 543l43 245h129l94 541h489q136 0 253 -44.5t199 -122t128.5 -186.5t46.5 -235q0 -202 -108 -373t-290 -269.5t-393 -98.5h-559l97 543h-129zM563 293h215q112 0 209.5 54t157 150.5t59.5 211.5q0 140 -90 233.5t-237 93.5h-183l-43 -248h303l-45 -245h-301z" />
<glyph unicode="&#xd1;" horiz-adv-x="1509" d="M141 0l234 1329h305l467 -821l143 821h312l-234 -1329h-285l-479 852l-151 -852h-312zM598 1485q20 151 96.5 235t196.5 84q64 0 117 -18t94.5 -36.5t77.5 -18.5q39 0 57.5 17t24.5 56h231q-25 -153 -99 -236t-192 -83q-65 0 -118.5 18.5t-95 37t-77.5 18.5 q-69 0 -82 -74h-231z" />
<glyph unicode="&#xd2;" horiz-adv-x="1540" d="M184 588q0 153 63 294t169.5 243.5t253.5 163.5t307 61q279 0 454 -171.5t175 -437.5q0 -207 -108 -382t-290 -276t-393 -101q-184 0 -328 77.5t-223.5 216t-79.5 312.5zM518 616q0 -144 90.5 -238.5t237.5 -94.5q113 0 210.5 55.5t156.5 154t59 216.5q0 146 -89.5 243 t-238.5 97q-116 0 -214.5 -59.5t-155 -159t-56.5 -214.5zM743 1591l107 248l489 -201l-104 -225z" />
<glyph unicode="&#xd3;" horiz-adv-x="1540" d="M184 588q0 153 63 294t169.5 243.5t253.5 163.5t307 61q279 0 454 -171.5t175 -437.5q0 -207 -108 -382t-290 -276t-393 -101q-184 0 -328 77.5t-223.5 216t-79.5 312.5zM518 616q0 -144 90.5 -238.5t237.5 -94.5q113 0 210.5 55.5t156.5 154t59 216.5q0 146 -89.5 243 t-238.5 97q-116 0 -214.5 -59.5t-155 -159t-56.5 -214.5zM733 1645l551 198l74 -252l-557 -178z" />
<glyph unicode="&#xd4;" horiz-adv-x="1540" d="M184 588q0 153 63 294t169.5 243.5t253.5 163.5t307 61q279 0 454 -171.5t175 -437.5q0 -207 -108 -382t-290 -276t-393 -101q-184 0 -328 77.5t-223.5 216t-79.5 312.5zM518 616q0 -144 90.5 -238.5t237.5 -94.5q113 0 210.5 55.5t156.5 154t59 216.5q0 146 -89.5 243 t-238.5 97q-116 0 -214.5 -59.5t-155 -159t-56.5 -214.5zM655 1608l359 227h157l279 -227l-158 -183l-225 168l-303 -180z" />
<glyph unicode="&#xd5;" horiz-adv-x="1540" d="M184 588q0 153 63 294t169.5 243.5t253.5 163.5t307 61q279 0 454 -171.5t175 -437.5q0 -207 -108 -382t-290 -276t-393 -101q-184 0 -328 77.5t-223.5 216t-79.5 312.5zM518 616q0 -144 90.5 -238.5t237.5 -94.5q113 0 210.5 55.5t156.5 154t59 216.5q0 146 -89.5 243 t-238.5 97q-116 0 -214.5 -59.5t-155 -159t-56.5 -214.5zM612 1485q20 150 97 234.5t198 84.5q50 0 94 -11.5t71 -25t60 -25t62 -11.5q39 0 57.5 17t24.5 56h231q-25 -154 -98 -236.5t-192 -82.5q-65 0 -118 18.5t-94.5 37t-78.5 18.5q-69 0 -82 -74h-232z" />
<glyph unicode="&#xd6;" horiz-adv-x="1540" d="M184 588q0 153 63 294t169.5 243.5t253.5 163.5t307 61q279 0 454 -171.5t175 -437.5q0 -207 -108 -382t-290 -276t-393 -101q-184 0 -328 77.5t-223.5 216t-79.5 312.5zM518 616q0 -144 90.5 -238.5t237.5 -94.5q113 0 210.5 55.5t156.5 154t59 216.5q0 146 -89.5 243 t-238.5 97q-116 0 -214.5 -59.5t-155 -159t-56.5 -214.5zM623 1477l55 309h319l-53 -309h-321zM1118 1477l56 309h319l-55 -309h-320z" />
<glyph unicode="&#xd7;" d="M205 342l344 293l-238 287l221 186l236 -287l346 295l162 -194l-348 -295l241 -293l-221 -187l-239 293l-344 -293z" />
<glyph unicode="&#xd8;" horiz-adv-x="1566" d="M80 125l192 164q-71 130 -71 299q0 153 62.5 294t168.5 243.5t252.5 163.5t306.5 61q228 0 391 -119l199 170l168 -207l-195 -164q66 -132 66 -289q0 -207 -108 -382t-290 -276t-393 -101q-220 0 -380 110l-203 -172zM532 616q0 -46 13 -96l575 490q-70 39 -162 39 q-116 0 -214.5 -59.5t-155 -159t-56.5 -214.5zM711 315q69 -32 149 -32q113 0 210.5 55.5t156.5 154t59 216.5q0 47 -8 86z" />
<glyph unicode="&#xd9;" horiz-adv-x="1460" d="M227 569l133 760h326l-131 -741q-27 -155 34 -230t195 -75q133 0 215.5 72.5t110.5 232.5l131 741h326l-133 -760q-55 -311 -227 -449t-453 -138q-137 0 -246 39t-180.5 112.5t-99 185.5t-1.5 250zM702 1591l107 248l489 -201l-102 -225z" />
<glyph unicode="&#xda;" horiz-adv-x="1460" d="M227 569l133 760h326l-131 -741q-27 -155 34 -230t195 -75q133 0 215.5 72.5t110.5 232.5l131 741h326l-133 -760q-55 -311 -227 -449t-453 -138q-137 0 -246 39t-180.5 112.5t-99 185.5t-1.5 250zM692 1645l551 198l74 -252l-555 -178z" />
<glyph unicode="&#xdb;" horiz-adv-x="1460" d="M227 569l133 760h326l-131 -741q-27 -155 34 -230t195 -75q133 0 215.5 72.5t110.5 232.5l131 741h326l-133 -760q-55 -311 -227 -449t-453 -138q-137 0 -246 39t-180.5 112.5t-99 185.5t-1.5 250zM614 1608l359 227h157l279 -227l-158 -183l-225 168l-301 -180z" />
<glyph unicode="&#xdc;" horiz-adv-x="1460" d="M227 569l133 760h326l-131 -741q-27 -155 34 -230t195 -75q133 0 215.5 72.5t110.5 232.5l131 741h326l-133 -760q-55 -311 -227 -449t-453 -138q-137 0 -246 39t-180.5 112.5t-99 185.5t-1.5 250zM584 1477l53 309h321l-55 -309h-319zM1077 1477l56 309h319l-55 -309 h-320z" />
<glyph unicode="&#xdd;" horiz-adv-x="1374" d="M244 1329h358l219 -528l396 528h372l-647 -813l-92 -516h-326l92 518zM647 1645l551 198l72 -252l-555 -178z" />
<glyph unicode="&#xde;" horiz-adv-x="1224" d="M141 0l234 1329h325l-34 -196h163q208 0 329.5 -112t121.5 -286q0 -165 -77 -287t-208.5 -183.5t-300.5 -61.5h-192l-35 -203h-326zM551 479h182q101 0 163 60.5t62 156.5q0 75 -42.5 116.5t-120.5 41.5h-179z" />
<glyph unicode="&#xdf;" horiz-adv-x="1187" d="M123 0l160 905q21 116 60 204t103 155.5t161 103t224 35.5q190 0 302 -96.5t112 -241.5q0 -120 -64.5 -211.5t-168.5 -134.5q80 -31 134 -105t54 -170q0 -218 -151.5 -331t-425.5 -113h-80l47 264h78q113 0 174 45t61 129q0 64 -44.5 100.5t-127.5 36.5h-86l45 259h55 q89 0 144 48.5t55 125.5q0 53 -37.5 86.5t-107.5 33.5q-178 0 -215 -210l-162 -918h-299z" />
<glyph unicode="&#xe0;" horiz-adv-x="1241" d="M139 434q0 121 44 226.5t117 177t167.5 112.5t194.5 41q206 0 305 -153l24 135h303l-172 -973h-303l19 104q-119 -122 -285 -122q-118 0 -213.5 61.5t-148 165t-52.5 225.5zM449 465q0 -90 59.5 -148.5t146.5 -58.5q99 0 170.5 73t71.5 177q0 89 -58 148t-141 59 q-103 0 -176 -73t-73 -177zM520 1253l107 248l489 -201l-102 -225z" />
<glyph unicode="&#xe1;" horiz-adv-x="1241" d="M139 434q0 121 44 226.5t117 177t167.5 112.5t194.5 41q206 0 305 -153l24 135h303l-172 -973h-303l19 104q-119 -122 -285 -122q-118 0 -213.5 61.5t-148 165t-52.5 225.5zM449 465q0 -90 59.5 -148.5t146.5 -58.5q99 0 170.5 73t71.5 177q0 89 -58 148t-141 59 q-103 0 -176 -73t-73 -177zM508 1307l551 198l71 -252l-555 -178z" />
<glyph unicode="&#xe2;" horiz-adv-x="1241" d="M139 434q0 121 44 226.5t117 177t167.5 112.5t194.5 41q206 0 305 -153l24 135h303l-172 -973h-303l19 104q-119 -122 -285 -122q-118 0 -213.5 61.5t-148 165t-52.5 225.5zM438 1300l377 226h121l297 -226l-158 -182l-223 166l-305 -180zM449 465q0 -90 59.5 -148.5 t146.5 -58.5q99 0 170.5 73t71.5 177q0 89 -58 148t-141 59q-103 0 -176 -73t-73 -177z" />
<glyph unicode="&#xe3;" horiz-adv-x="1241" d="M139 434q0 121 44 226.5t117 177t167.5 112.5t194.5 41q206 0 305 -153l24 135h303l-172 -973h-303l19 104q-119 -122 -285 -122q-118 0 -213.5 61.5t-148 165t-52.5 225.5zM383 1118q20 151 97.5 235.5t197.5 84.5q63 0 115.5 -21t94 -42t77.5 -21q81 0 92 84h221 q-24 -153 -97.5 -236.5t-193.5 -83.5q-65 0 -118 21t-94.5 42t-78.5 21t-61.5 -21.5t-30.5 -62.5h-221zM449 465q0 -90 59.5 -148.5t146.5 -58.5q99 0 170.5 73t71.5 177q0 89 -58 148t-141 59q-103 0 -176 -73t-73 -177z" />
<glyph unicode="&#xe4;" horiz-adv-x="1241" d="M139 434q0 121 44 226.5t117 177t167.5 112.5t194.5 41q206 0 305 -153l24 135h303l-172 -973h-303l19 104q-119 -122 -285 -122q-118 0 -213.5 61.5t-148 165t-52.5 225.5zM418 1133l51 292h305l-51 -292h-305zM449 465q0 -90 59.5 -148.5t146.5 -58.5q99 0 170.5 73 t71.5 177q0 89 -58 148t-141 59q-103 0 -176 -73t-73 -177zM893 1133l51 292h303l-51 -292h-303z" />
<glyph unicode="&#xe5;" horiz-adv-x="1241" d="M139 434q0 121 44 226.5t117 177t167.5 112.5t194.5 41q206 0 305 -153l24 135h303l-172 -973h-303l19 104q-119 -122 -285 -122q-118 0 -213.5 61.5t-148 165t-52.5 225.5zM449 465q0 -90 59.5 -148.5t146.5 -58.5q99 0 170.5 73t71.5 177q0 89 -58 148t-141 59 q-103 0 -176 -73t-73 -177zM565 1288q0 115 84 200t215 85q110 0 180 -62.5t70 -162.5q0 -112 -86.5 -198.5t-218.5 -86.5q-108 0 -176 62t-68 163zM745 1305q0 -34 21 -55t59 -21q46 0 76.5 29.5t30.5 72.5q0 35 -21 56.5t-61 21.5q-44 0 -74.5 -31.5t-30.5 -72.5z" />
<glyph unicode="&#xe6;" horiz-adv-x="1916" d="M139 434q0 121 44 226.5t117 177t167.5 112.5t194.5 41q206 0 305 -153l24 135h264l-16 -92q129 110 303 110q100 0 179.5 -34t129.5 -92.5t76.5 -135t26.5 -164.5q0 -60 -23 -159h-692q18 -76 72.5 -122t138.5 -46q118 0 211 84l178 -177q-99 -92 -195 -127.5 t-212 -35.5q-226 0 -326 151l-23 -133h-264l19 104q-119 -122 -285 -122q-118 0 -213.5 61.5t-148 165t-52.5 225.5zM449 465q0 -90 59.5 -148.5t146.5 -58.5q99 0 170.5 73t71.5 177q0 89 -58 148t-141 59q-103 0 -176 -73t-73 -177zM1257 598h410q-15 71 -64 111.5 t-124 40.5t-134 -40.5t-88 -111.5z" />
<glyph unicode="&#xe7;" horiz-adv-x="1054" d="M139 434q0 162 78 290.5t208.5 197.5t287.5 69q144 0 252 -60.5t172 -166.5l-254 -164q-24 55 -73.5 85t-111.5 30q-103 0 -174 -73t-71 -177q0 -90 57.5 -148.5t144.5 -58.5q64 0 118.5 30t90.5 83l215 -178q-164 -194 -409 -209l-41 -80h18q72 0 122 -50t50 -133 q0 -108 -81.5 -174.5t-219.5 -66.5q-152 0 -231 84l133 131q15 -21 46.5 -36t61.5 -15q84 0 84 57q0 51 -69 51h-166l129 242q-167 35 -267 157.5t-100 282.5z" />
<glyph unicode="&#xe8;" horiz-adv-x="1130" d="M141 442q0 158 75 284t203 195.5t283 69.5q208 0 336.5 -123.5t128.5 -302.5q0 -73 -24 -159h-701q18 -77 76 -122.5t150 -45.5q103 0 204 84l183 -179q-102 -91 -199.5 -126t-226.5 -35q-107 0 -198.5 36.5t-155 98.5t-99 146t-35.5 179zM455 588h419q-15 72 -67 117 t-125 45q-79 0 -139 -43t-88 -119zM481 1253l107 248l489 -201l-104 -225z" />
<glyph unicode="&#xe9;" horiz-adv-x="1130" d="M141 442q0 158 75 284t203 195.5t283 69.5q208 0 336.5 -123.5t128.5 -302.5q0 -73 -24 -159h-701q18 -77 76 -122.5t150 -45.5q103 0 204 84l183 -179q-102 -91 -199.5 -126t-226.5 -35q-107 0 -198.5 36.5t-155 98.5t-99 146t-35.5 179zM455 588h419q-15 72 -67 117 t-125 45q-79 0 -139 -43t-88 -119zM467 1307l551 198l74 -252l-555 -178z" />
<glyph unicode="&#xea;" horiz-adv-x="1130" d="M141 442q0 158 75 284t203 195.5t283 69.5q208 0 336.5 -123.5t128.5 -302.5q0 -73 -24 -159h-701q18 -77 76 -122.5t150 -45.5q103 0 204 84l183 -179q-102 -91 -199.5 -126t-226.5 -35q-107 0 -198.5 36.5t-155 98.5t-99 146t-35.5 179zM354 1300l377 226h121l297 -226 l-158 -182l-223 168l-303 -182zM455 588h419q-15 72 -67 117t-125 45q-79 0 -139 -43t-88 -119z" />
<glyph unicode="&#xeb;" horiz-adv-x="1130" d="M141 442q0 158 75 284t203 195.5t283 69.5q208 0 336.5 -123.5t128.5 -302.5q0 -73 -24 -159h-701q18 -77 76 -122.5t150 -45.5q103 0 204 84l183 -179q-102 -91 -199.5 -126t-226.5 -35q-107 0 -198.5 36.5t-155 98.5t-99 146t-35.5 179zM379 1133l51 292h303l-51 -292 h-303zM455 588h419q-15 72 -67 117t-125 45q-79 0 -139 -43t-88 -119zM852 1133l51 292h305l-51 -292h-305z" />
<glyph unicode="&#xec;" horiz-adv-x="565" d="M123 0l172 973h319l-172 -973h-319zM197 1253l106 248l490 -201l-103 -225z" />
<glyph unicode="&#xed;" horiz-adv-x="565" d="M123 0l172 973h319l-172 -973h-319zM184 1307l551 198l72 -252l-555 -178z" />
<glyph unicode="&#xee;" horiz-adv-x="565" d="M115 1300l377 226h120l297 -226l-157 -182l-224 168l-303 -182zM123 0l172 973h319l-172 -973h-319z" />
<glyph unicode="&#xef;" horiz-adv-x="565" d="M94 1133l53 292h304l-52 -292h-305zM123 0l172 973h319l-172 -973h-319zM569 1133l52 292h305l-54 -292h-303z" />
<glyph unicode="&#xf0;" horiz-adv-x="1175" d="M137 412q0 112 43.5 210.5t114.5 166t162.5 106.5t187.5 39q101 0 170.5 -22.5t114.5 -77.5q-14 110 -92 188l-43 -59l-209 127l30 43q-61 12 -124 12l45 250q130 0 249 -33l91 121l213 -125l-86 -115q208 -188 208 -565q0 -329 -158.5 -512.5t-432.5 -183.5 q-214 0 -349 124t-135 306zM451 436q0 -79 58 -130.5t142 -51.5q100 0 172 65.5t72 157.5q0 80 -59 132.5t-142 52.5q-100 0 -171.5 -66t-71.5 -160z" />
<glyph unicode="&#xf1;" horiz-adv-x="1191" d="M123 0l172 973h299l-19 -111q52 64 127 96.5t156 32.5q187 0 272 -112t46 -332l-97 -547h-319l92 522q15 85 -17.5 129.5t-105.5 44.5q-72 0 -126.5 -47t-67.5 -129l-93 -520h-319zM381 1118q20 151 96.5 235.5t196.5 84.5q64 0 116.5 -21t94 -42t78.5 -21q81 0 92 84 h221q-25 -154 -98.5 -237t-192.5 -83q-65 0 -118 21t-94.5 42t-78.5 21t-61.5 -21.5t-30.5 -62.5h-221z" />
<glyph unicode="&#xf2;" horiz-adv-x="1189" d="M141 440q0 159 79.5 286t213 196t293.5 69q218 0 357 -132t139 -322q0 -162 -80 -290t-213.5 -196.5t-294.5 -68.5q-142 0 -256 62.5t-176 166.5t-62 229zM455 465q0 -90 60 -148.5t147 -58.5q103 0 175 73t72 177q0 90 -60 148.5t-147 58.5q-103 0 -175 -73t-72 -177z M510 1253l106 248l490 -201l-105 -225z" />
<glyph unicode="&#xf3;" horiz-adv-x="1189" d="M141 440q0 159 79.5 286t213 196t293.5 69q218 0 357 -132t139 -322q0 -162 -80 -290t-213.5 -196.5t-294.5 -68.5q-142 0 -256 62.5t-176 166.5t-62 229zM455 465q0 -90 60 -148.5t147 -58.5q103 0 175 73t72 177q0 90 -60 148.5t-147 58.5q-103 0 -175 -73t-72 -177z M496 1307l551 198l73 -252l-555 -178z" />
<glyph unicode="&#xf4;" horiz-adv-x="1189" d="M141 440q0 159 79.5 286t213 196t293.5 69q218 0 357 -132t139 -322q0 -162 -80 -290t-213.5 -196.5t-294.5 -68.5q-142 0 -256 62.5t-176 166.5t-62 229zM428 1300l377 226h119l299 -226l-160 -182l-223 168l-303 -182zM455 465q0 -90 60 -148.5t147 -58.5q103 0 175 73 t72 177q0 90 -60 148.5t-147 58.5q-103 0 -175 -73t-72 -177z" />
<glyph unicode="&#xf5;" horiz-adv-x="1189" d="M141 440q0 159 79.5 286t213 196t293.5 69q218 0 357 -132t139 -322q0 -162 -80 -290t-213.5 -196.5t-294.5 -68.5q-142 0 -256 62.5t-176 166.5t-62 229zM373 1118q20 151 96.5 235.5t196.5 84.5q64 0 116.5 -21t93.5 -42t78 -21q82 0 93 84h221q-25 -154 -98.5 -237 t-192.5 -83q-65 0 -118.5 21t-95 42t-77.5 21q-37 0 -61.5 -21.5t-30.5 -62.5h-221zM455 465q0 -90 60 -148.5t147 -58.5q103 0 175 73t72 177q0 90 -60 148.5t-147 58.5q-103 0 -175 -73t-72 -177z" />
<glyph unicode="&#xf6;" horiz-adv-x="1189" d="M141 440q0 159 79.5 286t213 196t293.5 69q218 0 357 -132t139 -322q0 -162 -80 -290t-213.5 -196.5t-294.5 -68.5q-142 0 -256 62.5t-176 166.5t-62 229zM408 1133l51 292h303l-51 -292h-303zM455 465q0 -90 60 -148.5t147 -58.5q103 0 175 73t72 177q0 90 -60 148.5 t-147 58.5q-103 0 -175 -73t-72 -177zM881 1133l53 292h303l-51 -292h-305z" />
<glyph unicode="&#xf7;" d="M203 500l49 272h1030l-47 -272h-1032zM489 229q0 77 56 133t139 56q72 0 117 -43.5t45 -112.5q0 -77 -56 -132.5t-139 -55.5q-72 0 -117 43t-45 112zM627 1010q0 78 56 134t138 56q72 0 118 -44t46 -112q0 -78 -56.5 -134t-140.5 -56q-71 0 -116 44t-45 112z" />
<glyph unicode="&#xf8;" horiz-adv-x="1220" d="M53 90l160 135q-55 99 -55 215q0 159 78.5 286t212 196t294.5 69q158 0 281 -76l172 146l143 -176l-157 -133q55 -98 55 -215q0 -162 -80 -290t-213.5 -196.5t-292.5 -68.5t-282 77l-170 -145zM471 465q0 -90 59 -148.5t146 -58.5q103 0 175.5 73t72.5 177 q0 90 -59 148.5t-146 58.5q-103 0 -175.5 -73t-72.5 -177z" />
<glyph unicode="&#xf9;" horiz-adv-x="1183" d="M180 426l96 547h320l-92 -522q-15 -85 17.5 -130t105.5 -45q72 0 126.5 47.5t67.5 129.5l92 520h320l-172 -973h-299l18 111q-52 -64 -126.5 -96.5t-155.5 -32.5q-187 0 -272 112t-46 332zM504 1253l106 248l490 -201l-103 -225z" />
<glyph unicode="&#xfa;" horiz-adv-x="1183" d="M180 426l96 547h320l-92 -522q-15 -85 17.5 -130t105.5 -45q72 0 126.5 47.5t67.5 129.5l92 520h320l-172 -973h-299l18 111q-52 -64 -126.5 -96.5t-155.5 -32.5q-187 0 -272 112t-46 332zM492 1307l550 198l72 -252l-555 -178z" />
<glyph unicode="&#xfb;" horiz-adv-x="1183" d="M180 426l96 547h320l-92 -522q-15 -85 17.5 -130t105.5 -45q72 0 126.5 47.5t67.5 129.5l92 520h320l-172 -973h-299l18 111q-52 -64 -126.5 -96.5t-155.5 -32.5q-187 0 -272 112t-46 332zM422 1300l377 226h121l297 -226l-158 -182l-223 166l-306 -180z" />
<glyph unicode="&#xfc;" horiz-adv-x="1183" d="M180 426l96 547h320l-92 -522q-15 -85 17.5 -130t105.5 -45q72 0 126.5 47.5t67.5 129.5l92 520h320l-172 -973h-299l18 111q-52 -64 -126.5 -96.5t-155.5 -32.5q-187 0 -272 112t-46 332zM401 1133l52 292h305l-51 -292h-306zM877 1133l51 292h303l-51 -292h-303z" />
<glyph unicode="&#xfd;" horiz-adv-x="1138" d="M176 -451l266 441h-41l-219 983h334l117 -662l305 662h360l-788 -1424h-334zM469 1307l551 198l74 -252l-555 -178z" />
<glyph unicode="&#xfe;" horiz-adv-x="1247" d="M43 -451l324 1833h301l-93 -516q125 125 289 125q178 0 295 -132t117 -320q0 -121 -43.5 -226.5t-116 -177t-167 -112.5t-195.5 -41q-208 0 -305 155l-105 -588h-301zM520 465q0 -89 58 -148t141 -59q103 0 175.5 73t72.5 177q0 90 -59.5 148.5t-145.5 58.5 q-99 0 -170.5 -73t-71.5 -177z" />
<glyph unicode="&#xff;" horiz-adv-x="1138" d="M176 -451l266 441h-41l-219 983h334l117 -662l305 662h360l-788 -1424h-334zM381 1133l51 292h305l-53 -292h-303zM856 1133l51 292h303l-51 -292h-303z" />
<glyph unicode="&#x152;" horiz-adv-x="2138" d="M184 588q0 153 63 294t169.5 243.5t253.5 163.5t307 61q241 0 409 -133l21 112h866l-47 -274h-551l-45 -250h502l-47 -268h-502l-45 -261h555l-49 -276h-870l12 72q-175 -90 -371 -90q-184 0 -328 77.5t-223.5 216t-79.5 312.5zM518 616q0 -144 90.5 -238.5t237.5 -94.5 q113 0 210.5 55.5t156.5 154t59 216.5q0 146 -89.5 243t-238.5 97q-116 0 -214.5 -59.5t-155 -159t-56.5 -214.5z" />
<glyph unicode="&#x153;" horiz-adv-x="1908" d="M141 440q0 159 79.5 286t213 196t293.5 69q226 0 369 -143q159 143 387 143q138 0 245 -58.5t162.5 -155t55.5 -212.5q0 -60 -23 -159h-700q18 -77 74.5 -122.5t148.5 -45.5q106 0 207 84l182 -179q-102 -91 -200 -126t-228 -35q-111 0 -205 39t-160 108 q-166 -147 -407 -147q-142 0 -256 62.5t-176 166.5t-62 229zM455 465q0 -90 60 -148.5t147 -58.5q103 0 175 73t72 177q0 90 -60 148.5t-147 58.5q-103 0 -175 -73t-72 -177zM1235 588h418q-15 72 -66.5 117t-124.5 45q-79 0 -139 -43t-88 -119z" />
<glyph unicode="&#x178;" horiz-adv-x="1374" d="M244 1329h358l219 -528l396 528h372l-647 -813l-92 -516h-326l92 518zM537 1477l55 309h319l-55 -309h-319zM1032 1477l53 309h322l-55 -309h-320z" />
<glyph unicode="&#x2c6;" horiz-adv-x="1228" d="M352 1300l377 226h121l297 -226l-158 -182l-223 166l-305 -180z" />
<glyph unicode="&#x2dc;" horiz-adv-x="1228" d="M319 1118q20 151 96.5 235.5t196.5 84.5q64 0 116.5 -21t94 -42t78.5 -21q81 0 92 84h221q-25 -154 -98 -237t-192 -83q-65 0 -118.5 21t-95 42t-77.5 21q-37 0 -61.5 -21.5t-30.5 -62.5h-222z" />
<glyph unicode="&#x2000;" horiz-adv-x="974" />
<glyph unicode="&#x2001;" horiz-adv-x="1948" />
<glyph unicode="&#x2002;" horiz-adv-x="974" />
<glyph unicode="&#x2003;" horiz-adv-x="1948" />
<glyph unicode="&#x2004;" horiz-adv-x="649" />
<glyph unicode="&#x2005;" horiz-adv-x="487" />
<glyph unicode="&#x2006;" horiz-adv-x="324" />
<glyph unicode="&#x2007;" horiz-adv-x="324" />
<glyph unicode="&#x2008;" horiz-adv-x="243" />
<glyph unicode="&#x2009;" horiz-adv-x="389" />
<glyph unicode="&#x200a;" horiz-adv-x="108" />
<glyph unicode="&#x2010;" horiz-adv-x="860" d="M184 446l47 267h650l-47 -267h-650z" />
<glyph unicode="&#x2011;" horiz-adv-x="860" d="M184 446l47 267h650l-47 -267h-650z" />
<glyph unicode="&#x2012;" horiz-adv-x="860" d="M184 446l47 267h650l-47 -267h-650z" />
<glyph unicode="&#x2013;" horiz-adv-x="1265" d="M184 446l47 267h1055l-47 -267h-1055z" />
<glyph unicode="&#x2014;" horiz-adv-x="1800" d="M184 446l47 267h1590l-47 -267h-1590z" />
<glyph unicode="&#x2018;" horiz-adv-x="479" d="M219 915l219 457h215l-141 -457h-293z" />
<glyph unicode="&#x2019;" horiz-adv-x="466" d="M236 893l141 457h295l-219 -457h-217z" />
<glyph unicode="&#x201a;" horiz-adv-x="493" d="M37 -147l141 456h293l-219 -456h-215z" />
<glyph unicode="&#x201c;" horiz-adv-x="864" d="M219 893l219 457h215l-141 -457h-293zM600 893l221 457h215l-141 -457h-295z" />
<glyph unicode="&#x201d;" horiz-adv-x="849" d="M236 893l141 457h295l-219 -457h-217zM618 893l142 457h293l-219 -457h-216z" />
<glyph unicode="&#x201e;" horiz-adv-x="874" d="M37 -147l141 456h293l-219 -456h-215zM420 -147l141 456h293l-219 -456h-215z" />
<glyph unicode="&#x2022;" horiz-adv-x="856" d="M215 350l92 531h549l-92 -531h-549z" />
<glyph unicode="&#x2026;" horiz-adv-x="1511" d="M102 0l58 315h329l-55 -315h-332zM590 0l57 315h330l-55 -315h-332zM1079 0l56 315h329l-55 -315h-330z" />
<glyph unicode="&#x202f;" horiz-adv-x="389" />
<glyph unicode="&#x2039;" horiz-adv-x="720" d="M131 475l367 371h301l-373 -383l223 -359h-287z" />
<glyph unicode="&#x203a;" horiz-adv-x="720" d="M90 104l373 383l-223 359h286l232 -371l-365 -371h-303z" />
<glyph unicode="&#x205f;" horiz-adv-x="487" />
<glyph unicode="&#x20ac;" horiz-adv-x="1300" d="M119 414l100 196h105q3 44 12 84h-119l100 199h78q91 210 273.5 333.5t418.5 123.5q113 0 199.5 -20t169.5 -70l-184 -273q-94 62 -221 62q-92 0 -170.5 -41t-135.5 -115h463l-100 -199h-449q-9 -40 -12 -84h432l-100 -196h-303q66 -131 242 -131q126 0 243 61l84 -272 q-94 -50 -181 -70t-190 -20q-223 0 -369 119t-177 313h-209z" />
<glyph unicode="&#x2122;" horiz-adv-x="1677" d="M254 1118l39 211h620l-39 -211h-190l-78 -440h-237l77 440h-192zM893 678l117 651h276l39 -399l180 399h287l-115 -651h-200l67 377h-6l-170 -377h-166l-37 377h-6l-65 -377h-201z" />
<glyph unicode="&#x25fc;" horiz-adv-x="972" d="M0 0v973h973v-973h-973z" />
</font>
</defs>
</svg>
