<?xml version="1.0" standalone="no"?>
<!DOCTYPE svg PUBLIC "-//W3C//DTD SVG 1.1//EN" "http://www.w3.org/Graphics/SVG/1.1/DTD/svg11.dtd" >
<svg xmlns="http://www.w3.org/2000/svg" xmlns:xlink="http://www.w3.org/1999/xlink" version="1.1">
<metadata></metadata>
<defs>
<font id="f37_moonlight" horiz-adv-x="1243" >
<font-face units-per-em="2048" ascent="1638" descent="-410" />
<missing-glyph horiz-adv-x="487" />
<glyph unicode="&#xfb01;" horiz-adv-x="1026" d="M57 874v99h146v31q0 399 360 399q24 0 47 -2v-98q-20 2 -45 2q-58 0 -99.5 -11t-80.5 -41t-59.5 -92.5t-20.5 -156.5v-31h561v-973h-102v874h-459v-874h-102v874h-146zM750 1192v135h131v-135h-131z" />
<glyph unicode="&#xfb02;" horiz-adv-x="1026" d="M57 874v99h146v31q0 399 360 399q24 0 47 -2v-98q-20 2 -45 2q-58 0 -99.5 -11t-80.5 -41t-59.5 -92.5t-20.5 -156.5v-31h459v409h102v-1382h-102v874h-459v-874h-102v874h-146z" />
<glyph horiz-adv-x="0" />
<glyph horiz-adv-x="682" />
<glyph unicode=" "  horiz-adv-x="487" />
<glyph unicode="&#x09;" horiz-adv-x="487" />
<glyph unicode="&#xa0;" horiz-adv-x="487" />
<glyph unicode="!" horiz-adv-x="444" d="M156 0v135h131v-135h-131zM170 846v483h104v-483l-24 -488h-57z" />
<glyph unicode="&#x22;" horiz-adv-x="587" d="M109 1350h116l-18 -303h-78zM360 1350h119l-20 -303h-78z" />
<glyph unicode="#" horiz-adv-x="1118" d="M72 436v92h243l62 287h-225v92h245l64 289h88l-64 -289h254l64 289h86l-64 -289h219v-92h-239l-62 -287h222v-92h-242l-64 -289h-86l64 289h-254l-64 -289h-88l64 289h-223zM403 528h254l62 287h-254z" />
<glyph unicode="$" horiz-adv-x="1048" d="M59 195l74 67q134 -169 352 -184v575q-49 16 -80.5 28t-75.5 31.5t-71.5 38t-59 47t-49 59.5t-29 72.5t-11.5 90.5q0 144 102.5 230.5t273.5 97.5v215h93v-215q241 -12 376 -189l-67 -67q-123 147 -309 159v-524q50 -16 84.5 -28.5t79.5 -33t75.5 -41t62.5 -50.5 t51 -64.5t31.5 -80.5t12.5 -99q0 -155 -107.5 -246t-289.5 -102v-213h-93v213q-275 15 -426 213zM213 1018q0 -54 20.5 -96t62 -72t83.5 -50t106 -42v493q-128 -11 -200 -71.5t-72 -161.5zM578 78q140 9 216 73.5t76 174.5q0 63 -22 112t-66 83.5t-90.5 56.5t-113.5 45v-545 z" />
<glyph unicode="%" horiz-adv-x="1527" d="M61 983q0 155 86.5 255.5t219.5 100.5q135 0 221 -100t86 -256q0 -157 -86 -256.5t-221 -99.5q-134 0 -220 100t-86 256zM150 983q0 -120 61.5 -197t155.5 -77q95 0 157 77t62 197q0 118 -62 195t-157 77q-94 0 -155.5 -77t-61.5 -195zM387 0l660 1329h94l-660 -1329h-94 zM854 348q0 157 86 258t219 101t219 -101t86 -258q0 -155 -86 -255.5t-219 -100.5t-219 100.5t-86 255.5zM940 348q0 -118 62 -195t157 -77q94 0 155.5 77t61.5 195q0 120 -61.5 197.5t-155.5 77.5q-95 0 -157 -77.5t-62 -197.5z" />
<glyph unicode="&#x26;" horiz-adv-x="1210" d="M98 375q0 130 64.5 214t171.5 122q-201 88 -201 299q0 152 112.5 246t309.5 94q71 0 145 -9v-100q-85 10 -141 10q-152 0 -234.5 -71t-82.5 -179q0 -105 66 -173t194 -68h346v278h100v-278h193v-98h-193v-564h193v-98h-572q-229 0 -350 100.5t-121 274.5zM207 383 q0 -132 89.5 -208.5t270.5 -76.5h281v564h-352q-134 0 -211.5 -79t-77.5 -200z" />
<glyph unicode="'" horiz-adv-x="333" d="M109 1350h116l-18 -303h-78z" />
<glyph unicode="(" horiz-adv-x="571" d="M88 522q0 149 33 281.5t91.5 234.5t129 180t156.5 138l53 -78q-160 -119 -258 -309.5t-98 -446.5q0 -254 98.5 -445t257.5 -308l-53 -78q-86 60 -156.5 137.5t-129 179.5t-91.5 234t-33 280z" />
<glyph unicode=")" horiz-adv-x="571" d="M20 -231q159 117 258 308t99 445q0 255 -98.5 446t-258.5 310l54 78q85 -60 156 -138t129.5 -180t91 -234.5t32.5 -281.5q0 -148 -32.5 -280t-91 -234t-129.5 -179.5t-156 -137.5z" />
<glyph unicode="*" horiz-adv-x="710" d="M98 954l193 103l-193 100l41 70l185 -117l-9 219h80l-10 -219l186 117l39 -70l-192 -102l192 -101l-39 -69l-186 116l10 -219h-80l9 219l-185 -116z" />
<glyph unicode="+" horiz-adv-x="1261" d="M180 578v98h402v401h98v-401h401v-98h-401v-402h-98v402h-402z" />
<glyph unicode="," horiz-adv-x="360" d="M88 -186l43 323h123l-84 -323h-82z" />
<glyph unicode="-" horiz-adv-x="823" d="M125 489v99h571v-99h-571z" />
<glyph unicode="." horiz-adv-x="391" d="M127 0v139h137v-139h-137z" />
<glyph unicode="/" horiz-adv-x="671" d="M70 0l428 1329h102l-428 -1329h-102z" />
<glyph unicode="0" horiz-adv-x="1159" d="M129 438v455q0 199 123.5 328t327.5 129t327 -129t123 -328v-455q0 -200 -123 -329t-327 -129t-327.5 129t-123.5 329zM236 442q0 -163 91.5 -260.5t252.5 -97.5t253.5 97.5t92.5 260.5v445q0 163 -92.5 260.5t-253.5 97.5t-252.5 -97.5t-91.5 -260.5v-445z" />
<glyph unicode="1" horiz-adv-x="548" d="M59 1227v102h306v-1329h-111v1227h-195z" />
<glyph unicode="2" horiz-adv-x="1003" d="M84 0v86l510 565q48 54 72 84t53.5 76.5t42 92t12.5 97.5q0 110 -70.5 179t-201.5 69q-135 0 -214 -80.5t-79 -240.5h-107q0 108 31 190t87 132t128 75t158 25q178 0 276.5 -97.5t98.5 -255.5q0 -61 -15.5 -116.5t-49 -109.5t-67 -96.5t-87.5 -101.5l-426 -471h684v-102 h-836z" />
<glyph unicode="3" horiz-adv-x="1013" d="M63 287l84 49q85 -260 347 -260q145 0 231 82t86 215q0 134 -92.5 210t-251.5 76h-55l-35 78l387 494h-649v98h776v-90l-387 -494q184 -8 296.5 -108.5t112.5 -263.5q0 -172 -117 -282.5t-302 -110.5q-158 0 -269.5 80.5t-161.5 226.5z" />
<glyph unicode="4" horiz-adv-x="1077" d="M47 332v82l418 915h113l-408 -897h545v395h106v-395h207v-100h-207v-332h-106v332h-668z" />
<glyph unicode="5" horiz-adv-x="1003" d="M70 287l86 51q85 -260 346 -260q144 0 229.5 82.5t85.5 216.5q0 146 -92.5 229.5t-251.5 83.5h-319l47 639h645v-100h-551l-33 -441h217q195 0 319 -111.5t124 -299.5q0 -175 -117.5 -286t-302.5 -111q-158 0 -270 80.5t-162 226.5z" />
<glyph unicode="6" horiz-adv-x="1044" d="M90 401q0 138 94 295l371 633h121l-334 -561q100 66 213 66q118 0 217 -59.5t155 -159t56 -214.5q0 -173 -128.5 -297t-317.5 -124t-318 124t-129 297zM195 399q0 -133 96 -227t246 -94t246 94t96 227q0 141 -96.5 240.5t-245.5 99.5t-245.5 -99.5t-96.5 -240.5z" />
<glyph unicode="7" horiz-adv-x="942" d="M39 1227v102h858v-94l-600 -1235h-121l604 1227h-741z" />
<glyph unicode="8" horiz-adv-x="1091" d="M96 367q0 135 69.5 228t188.5 134q-85 38 -133.5 109.5t-48.5 171.5q0 154 106 247t269 93q162 0 267.5 -93t105.5 -247q0 -99 -49 -171t-132 -110q117 -41 186.5 -134t69.5 -228q0 -117 -61.5 -206.5t-162.5 -135t-224 -45.5q-191 0 -321 105.5t-130 281.5zM201 373 q0 -136 98.5 -215.5t247.5 -79.5q147 0 245.5 79.5t98.5 215.5q0 142 -96.5 224.5t-247.5 82.5t-248.5 -82.5t-97.5 -224.5zM274 1006q0 -109 78 -173.5t195 -64.5q114 0 192 64.5t78 171.5q0 114 -76.5 182.5t-193.5 68.5q-119 0 -196 -67.5t-77 -181.5z" />
<glyph unicode="9" horiz-adv-x="1044" d="M61 928q0 173 128.5 297.5t318.5 124.5q124 0 226.5 -58t160 -154.5t57.5 -209.5q0 -136 -92 -295l-371 -633h-122l333 561q-98 -65 -213 -65q-178 0 -302 127.5t-124 304.5zM166 930q0 -142 96 -241t246 -99q149 0 244.5 99.5t95.5 240.5q0 133 -95 227t-245 94 q-151 0 -246.5 -94t-95.5 -227z" />
<glyph unicode=":" horiz-adv-x="393" d="M127 0v139h137v-139h-137zM127 758v139h137v-139h-137z" />
<glyph unicode=";" horiz-adv-x="444" d="M129 -186l43 323h121l-84 -323h-80zM162 758v139h137v-139h-137z" />
<glyph unicode="&#x3c;" horiz-adv-x="1261" d="M328 647l516 520l71 -69l-448 -451l448 -448l-71 -72z" />
<glyph unicode="=" horiz-adv-x="1261" d="M180 383v98h901v-98h-901zM180 793v98h901v-98h-901z" />
<glyph unicode="&#x3e;" horiz-adv-x="1261" d="M346 199l449 448l-449 451l72 69l516 -520l-516 -520z" />
<glyph unicode="?" horiz-adv-x="915" d="M61 930q0 107 31 189t86 131.5t125.5 74.5t153.5 25q175 0 272.5 -95.5t97.5 -248.5q0 -57 -18 -108.5t-47 -91t-64.5 -76.5t-70.5 -70.5t-64 -66t-47 -70.5t-18 -77v-88h-105v95q0 62 34 121t82.5 106.5l97 95t82.5 106.5t34 122q0 111 -70.5 179t-201.5 68 q-128 0 -206.5 -81t-78.5 -240h-105zM381 0v135h131v-135h-131z" />
<glyph unicode="@" horiz-adv-x="1847" d="M82 371q0 238 109 428.5t302 297.5t433 107q179 0 333.5 -61t263 -167.5t170.5 -256t62 -320.5q0 -212 -91 -345.5t-234 -133.5q-208 0 -226 232q-48 -92 -133 -144.5t-194 -52.5q-159 0 -275.5 116.5t-116.5 286.5q0 171 116.5 288.5t275.5 117.5q110 0 195 -53 t130 -146v185h96v-574q0 -81 36.5 -122.5t101.5 -41.5q96 0 157.5 108t61.5 279q0 205 -91.5 367t-258 253t-379.5 91q-161 0 -299.5 -55t-236 -151.5t-153 -234t-55.5 -298.5q0 -212 91.5 -379.5t254 -260.5t367.5 -93q92 0 182.5 18.5t149.5 50.5l39 -88 q-68 -35 -170 -55.5t-201 -20.5q-232 0 -417.5 106t-290.5 295.5t-105 426.5zM580 358q0 -131 89 -222t214 -91q131 0 220 90t89 225q0 133 -89 223.5t-220 90.5q-125 0 -214 -91.5t-89 -224.5z" />
<glyph unicode="A" d="M31 0l524 1329h131l524 -1329h-106l-152 383h-659l-152 -383h-110zM332 481h581l-290 744z" />
<glyph unicode="B" horiz-adv-x="1198" d="M178 0v1329h459q183 0 294 -96t111 -248q0 -193 -153 -297q98 -43 150.5 -124t52.5 -189q0 -176 -110.5 -275.5t-303.5 -99.5h-500zM283 98h395q150 0 229.5 72.5t79.5 208.5q0 106 -72.5 181t-173.5 75h-458v-537zM283 731h448q88 0 146.5 72.5t58.5 177.5 q0 104 -80.5 177t-206.5 73h-366v-500z" />
<glyph unicode="C" horiz-adv-x="1376" d="M90 664q0 194 87 351t240 246t341 89q177 0 324.5 -82.5t236.5 -225.5l-88 -57q-74 124 -197.5 194t-275.5 70q-159 0 -287.5 -77.5t-200 -211.5t-71.5 -296t71.5 -295.5t200 -211t287.5 -77.5q151 0 274.5 70.5t198.5 193.5l88 -55q-89 -144 -236 -226.5t-325 -82.5 q-188 0 -341 89t-240 245.5t-87 349.5z" />
<glyph unicode="D" horiz-adv-x="1359" d="M178 0v1329h432q201 0 352 -88.5t228.5 -237.5t77.5 -337q0 -189 -79 -339.5t-230 -238.5t-349 -88h-432zM283 100h327q157 0 280.5 65.5t197 195.5t73.5 305q0 261 -155.5 412t-395.5 151h-327v-1129z" />
<glyph unicode="E" horiz-adv-x="1024" d="M178 0v1329h756v-98h-651v-498h591v-98h-591v-537h653v-98h-758z" />
<glyph unicode="F" horiz-adv-x="980" d="M178 0v1329h754v-98h-647v-520h587v-101h-587v-610h-107z" />
<glyph unicode="G" horiz-adv-x="1445" d="M90 664q0 194 87 351t240 246t341 89q149 0 279 -60t223 -166l-74 -73q-78 94 -188 146t-240 52q-159 0 -287.5 -77.5t-200 -211.5t-71.5 -296t71.5 -295.5t200 -211t287.5 -77.5q77 0 148.5 18.5t136.5 58.5t113.5 97.5t78 141t31.5 184.5h-469v94h573q4 -25 4 -74 q0 -176 -75 -316.5t-216 -222t-325 -81.5q-188 0 -341 89t-240 245.5t-87 349.5z" />
<glyph unicode="H" horiz-adv-x="1329" d="M178 0v1329h107v-596h759v596h107v-1329h-107v633h-759v-633h-107z" />
<glyph unicode="I" horiz-adv-x="462" d="M178 0v1329h107v-1329h-107z" />
<glyph unicode="J" horiz-adv-x="905" d="M33 129l63 80q66 -68 130 -98.5t147 -30.5q260 0 260 299v950h104v-956q0 -190 -95 -291.5t-267 -101.5q-193 0 -342 149z" />
<glyph unicode="K" horiz-adv-x="1161" d="M178 0v1329h105v-792l708 792h129l-538 -602l585 -727h-127l-530 647l-227 -252v-395h-105z" />
<glyph unicode="L" horiz-adv-x="952" d="M178 0v1329h111v-1227h633v-102h-744z" />
<glyph unicode="M" horiz-adv-x="1718" d="M178 0v1329h160l522 -1231l520 1231h158v-1329h-104v1194l-512 -1194h-123l-514 1194v-1194h-107z" />
<glyph unicode="N" horiz-adv-x="1462" d="M178 0v1329h125l875 -1171v1171h104v-1329h-113l-886 1186v-1186h-105z" />
<glyph unicode="O" horiz-adv-x="1515" d="M90 664q0 193 88 350.5t241 246.5t339 89q185 0 338 -88.5t241 -246t88 -351.5q0 -145 -52 -273t-141 -217.5t-212 -141.5t-262 -52q-185 0 -337.5 87.5t-241.5 244.5t-89 352zM199 664q0 -164 72 -297.5t200.5 -210t286.5 -76.5t287 77t201.5 210.5t72.5 296.5t-72 297 t-201 211t-288 77t-287.5 -77.5t-200 -211.5t-71.5 -296z" />
<glyph unicode="P" horiz-adv-x="1095" d="M178 0v1329h408q203 0 328.5 -119.5t125.5 -296.5q0 -181 -123 -297t-331 -116h-301v-500h-107zM285 600h299q163 0 256.5 87t93.5 226q0 136 -95.5 227t-254.5 91h-299v-631z" />
<glyph unicode="Q" horiz-adv-x="1515" d="M90 664q0 193 88 350.5t241 246.5t339 89q185 0 338 -88.5t241 -246t88 -351.5q0 -145 -50.5 -271t-141.5 -219l160 -168l-76 -65l-160 168q-175 -129 -399 -129q-185 0 -337.5 87.5t-241.5 244.5t-89 352zM199 664q0 -164 72 -297.5t200.5 -210t286.5 -76.5 q185 0 327 102l-286 299l75 68l287 -299q75 79 116.5 186t41.5 228q0 163 -72 297t-201 211t-288 77t-287.5 -77.5t-200 -211.5t-71.5 -296z" />
<glyph unicode="R" horiz-adv-x="1134" d="M178 0v1329h395q220 0 337.5 -105.5t117.5 -281.5q0 -150 -81.5 -250.5t-235.5 -130.5l342 -561h-125l-338 549h-12h-297v-549h-103zM281 639h294q171 0 260 78.5t89 218.5q0 139 -89.5 218t-259.5 79h-294v-594z" />
<glyph unicode="S" horiz-adv-x="1069" d="M63 197l76 69q149 -186 398 -186q160 0 248.5 64t88.5 184q0 83 -42 142.5t-109 93.5t-148 61t-162.5 56t-148.5 67.5t-109 106.5t-42 163q0 155 119 243.5t311 88.5q274 0 422 -191l-72 -72q-131 162 -350 162q-149 0 -235.5 -59.5t-86.5 -171.5q0 -53 21.5 -95 t58 -69.5t85 -51.5t103.5 -41t113 -38t113 -41t103.5 -52.5t85 -71t58 -96.5t21.5 -130q0 -166 -122 -259t-324 -93q-309 0 -474 217z" />
<glyph unicode="T" horiz-adv-x="1071" d="M31 1229v100h1011v-100h-454v-1229h-105v1229h-452z" />
<glyph unicode="U" horiz-adv-x="1409" d="M162 555v774h106v-770q0 -244 116 -361.5t321 -117.5q204 0 320 117.5t116 361.5v770h104v-774q0 -281 -144 -428t-396 -147q-253 0 -398 147t-145 428z" />
<glyph unicode="V" horiz-adv-x="1228" d="M33 1329h110l473 -1225l469 1225h109l-514 -1329h-131z" />
<glyph unicode="W" horiz-adv-x="1937" d="M33 1329h110l385 -1216l379 1216h123l379 -1216l387 1216h107l-428 -1329h-132l-374 1196l-377 -1196h-129z" />
<glyph unicode="X" horiz-adv-x="1136" d="M14 0l492 678l-473 651h123l415 -573l412 573h121l-473 -651l491 -678h-123l-432 598l-432 -598h-121z" />
<glyph unicode="Y" horiz-adv-x="1234" d="M39 1329h121l458 -676l459 676h117l-524 -770v-559h-105v559z" />
<glyph unicode="Z" horiz-adv-x="1038" d="M57 0v68l781 1163h-779v98h922v-67l-778 -1164h778v-98h-924z" />
<glyph unicode="[" horiz-adv-x="620" d="M176 -297v1626h410v-90h-305v-1446h305v-90h-410z" />
<glyph unicode="\" horiz-adv-x="671" d="M70 1329h102l428 -1329h-100z" />
<glyph unicode="]" horiz-adv-x="620" d="M33 -207h307v1446h-307v90h411v-1626h-411v90z" />
<glyph unicode="^" horiz-adv-x="1261" d="M197 606l376 723h115l377 -723h-104l-330 635l-330 -635h-104z" />
<glyph unicode="_" horiz-adv-x="958" d="M78 -57h803v-99h-803v99z" />
<glyph unicode="`" horiz-adv-x="1228" d="M123 1329l49 88l418 -256l-43 -80z" />
<glyph unicode="a" horiz-adv-x="1241" d="M82 485q0 141 68 258t179.5 182.5t239.5 65.5q141 0 249 -66.5t163 -183.5v232h100v-973h-102v227q-56 -116 -163.5 -181.5t-246.5 -65.5q-95 0 -184 38.5t-156 104.5t-107 161t-40 201zM182 485q0 -172 116.5 -290.5t281.5 -118.5q171 0 287 117.5t116 291.5 q0 175 -116.5 293.5t-286.5 118.5q-165 0 -281.5 -119t-116.5 -293z" />
<glyph unicode="b" d="M160 0v1382h100v-639q55 117 165 182.5t243 65.5q134 0 247.5 -67t179.5 -183.5t66 -255.5q0 -211 -145 -358t-350 -147q-133 0 -240.5 65.5t-165.5 177.5v-223h-100zM260 485q0 -177 116 -293t288 -116q166 0 281.5 118.5t115.5 290.5t-115.5 292t-281.5 120 q-171 0 -287.5 -118t-116.5 -294z" />
<glyph unicode="c" horiz-adv-x="1071" d="M82 485q0 212 148 359t360 147q131 0 241.5 -58t180.5 -165l-82 -49q-56 87 -144.5 132.5t-195.5 45.5q-174 0 -291 -118.5t-117 -293.5q0 -174 117 -291.5t291 -117.5q108 0 197.5 46t148.5 134l80 -51q-73 -108 -184 -166.5t-242 -58.5q-139 0 -256 67t-184.5 183.5 t-67.5 254.5z" />
<glyph unicode="d" d="M82 485q0 139 67 255.5t181 183.5t248 67q131 0 240.5 -65.5t164.5 -182.5v639h102v-1382h-102v223q-58 -112 -165 -177.5t-240 -65.5q-134 0 -248 66.5t-181 183t-67 255.5zM182 485q0 -171 116.5 -290t281.5 -119q172 0 287.5 116t115.5 293q0 176 -116 294t-287 118 q-165 0 -281.5 -120.5t-116.5 -291.5z" />
<glyph unicode="e" horiz-adv-x="1134" d="M82 487q0 137 65 253t178 183.5t248 67.5q132 0 245 -67t178 -180t65 -244q0 -25 -2 -43h-877q9 -167 124 -276t284 -109q106 0 195 42.5t143 118.5l71 -53q-65 -94 -173.5 -147t-235.5 -53q-139 0 -256 67t-184.5 183.5t-67.5 256.5zM186 539h772q-10 159 -120 259.5 t-265 100.5q-151 0 -261.5 -102t-125.5 -258z" />
<glyph unicode="f" horiz-adv-x="634" d="M57 874v99h146v31q0 399 360 399q24 0 47 -2v-98q-20 2 -45 2q-58 0 -99.5 -11t-80.5 -41t-59.5 -92.5t-20.5 -156.5v-31h305v-99h-305v-874h-102v874h-146z" />
<glyph unicode="g" horiz-adv-x="1241" d="M84 485q0 141 68 258t179.5 182.5t239.5 65.5q141 0 249 -66.5t163 -183.5v232h100v-883q0 -268 -137 -413.5t-389 -145.5q-226 0 -407 109l43 88q173 -103 360 -103q206 0 317 118.5t111 342.5v141q-56 -116 -163.5 -181.5t-246.5 -65.5q-95 0 -184 38.5t-156 104.5 t-107 161t-40 201zM184 485q0 -172 116.5 -290.5t281.5 -118.5q171 0 287 117.5t116 291.5q0 175 -116.5 293.5t-286.5 118.5q-165 0 -281.5 -119t-116.5 -293z" />
<glyph unicode="h" horiz-adv-x="1171" d="M160 0v1382h100v-624q39 108 135.5 170.5t229.5 62.5q178 0 289.5 -105t111.5 -294v-592h-102v545q0 166 -85.5 259t-230.5 93q-68 0 -128.5 -22t-110 -65.5t-78.5 -116.5t-29 -167v-526h-102z" />
<glyph unicode="i" horiz-adv-x="421" d="M145 1192v135h131v-135h-131zM160 0v973h102v-973h-102z" />
<glyph unicode="j" horiz-adv-x="421" d="M-90 -369q20 -2 45 -2q98 0 151.5 51t53.5 179v1114h102v-1114q0 -328 -307 -328q-25 0 -45 2v98zM143 1192v135h131v-135h-131z" />
<glyph unicode="k" horiz-adv-x="931" d="M160 0v1382h102v-921l498 512h133l-401 -414l438 -559h-123l-385 485l-160 -163v-322h-102z" />
<glyph unicode="l" horiz-adv-x="421" d="M160 0v1382h102v-1382h-102z" />
<glyph unicode="m" horiz-adv-x="1824" d="M160 0v973h100v-205q42 107 128 165t210 58q133 0 223 -61.5t127 -177.5q44 120 138 179.5t221 59.5q174 0 272 -104.5t98 -294.5v-592h-102v545q0 169 -74 260.5t-213 91.5t-228 -93.5t-89 -277.5v-526h-103v545q0 169 -74.5 260.5t-213.5 91.5q-140 0 -229 -95 t-89 -278v-524h-102z" />
<glyph unicode="n" horiz-adv-x="1171" d="M160 0v973h100v-213q39 108 135 169.5t230 61.5q178 0 289.5 -105t111.5 -294v-592h-102v545q0 166 -85.5 259t-230.5 93q-68 0 -128.5 -22t-110 -65.5t-78.5 -116.5t-29 -167v-526h-102z" />
<glyph unicode="o" horiz-adv-x="1177" d="M82 483q0 135 67.5 252t184.5 186.5t256 69.5q138 0 255 -69.5t184 -186.5t67 -252q0 -136 -68.5 -252t-185 -183.5t-252.5 -67.5q-137 0 -254 67.5t-185.5 183.5t-68.5 252zM182 483q0 -164 119.5 -285.5t288.5 -121.5q111 0 204.5 56.5t147 150.5t53.5 200t-52 201 t-146 154t-207 59t-208 -59t-147.5 -154t-52.5 -201z" />
<glyph unicode="p" d="M160 -449v1422h100v-230q55 117 165 182.5t243 65.5q134 0 247.5 -67t179.5 -183.5t66 -255.5q0 -211 -145 -358t-350 -147q-135 0 -241.5 65t-164.5 178v-672h-100zM260 485q0 -177 116 -293t288 -116q166 0 281.5 118.5t115.5 290.5t-115.5 292t-281.5 120 q-171 0 -287.5 -118t-116.5 -294z" />
<glyph unicode="q" d="M82 485q0 139 67 255.5t181 183.5t248 67q131 0 240.5 -65.5t164.5 -182.5v230h102v-1422h-102v672q-57 -113 -162.5 -178t-242.5 -65q-134 0 -248 66.5t-181 183t-67 255.5zM182 485q0 -171 116.5 -290t281.5 -119q172 0 287.5 116t115.5 293q0 176 -116 294t-287 118 q-165 0 -281.5 -120.5t-116.5 -291.5z" />
<glyph unicode="r" horiz-adv-x="681" d="M160 0v973h102v-250q69 268 397 268v-108h-28q-99 0 -173 -36t-115.5 -97.5t-61 -134.5t-19.5 -156v-459h-102z" />
<glyph unicode="s" horiz-adv-x="849" d="M61 193l86 49q50 -93 120.5 -132.5t176.5 -39.5q105 0 165.5 45.5t60.5 122.5q0 50 -24.5 88.5t-64 61t-90.5 43t-104 35t-104 38t-90.5 50.5t-64 73t-24.5 106q0 121 89 189.5t229 68.5q107 0 194.5 -43.5t139.5 -132.5l-86 -49q-81 135 -250 135q-99 0 -156 -43 t-57 -123q0 -50 31 -85t81 -56.5t110.5 -40t120.5 -42t110 -55t81 -86.5t31 -130q0 -120 -89.5 -190t-238.5 -70q-136 0 -230.5 49t-152.5 164z" />
<glyph unicode="t" horiz-adv-x="593" d="M27 874v99h188v246h102v-246h267v-99h-267v-874h-102v874h-188z" />
<glyph unicode="u" horiz-adv-x="1167" d="M145 387v586h101v-553q0 -164 84.5 -255t228.5 -91q148 0 248 95t100 280v524h103v-973h-103v213q-38 -107 -133.5 -170t-230.5 -63q-178 0 -288 108.5t-110 298.5z" />
<glyph unicode="v" horiz-adv-x="1019" d="M31 973h108l371 -860l373 860h106l-422 -973h-114z" />
<glyph unicode="w" horiz-adv-x="1630" d="M33 973h110l312 -852l307 852h104l308 -852l313 852h110l-366 -973h-111l-305 840l-303 -840h-115z" />
<glyph unicode="x" horiz-adv-x="903" d="M18 0l375 508l-342 465h117l285 -387l284 387h115l-342 -467l375 -506h-117l-317 428l-316 -428h-117z" />
<glyph unicode="y" horiz-adv-x="1028" d="M29 973h112l379 -860l365 860h112l-624 -1422h-105l197 441z" />
<glyph unicode="z" horiz-adv-x="899" d="M68 0v90l641 791h-641v92h763v-94l-641 -787h641v-92h-763z" />
<glyph unicode="{" horiz-adv-x="620" d="M53 467v98q183 9 183 232v323q0 209 196 209h152v-90h-125q-67 0 -93 -36.5t-26 -102.5v-316q0 -211 -166 -268q166 -54 166 -266v-316q0 -67 26 -104t93 -37h125v-90h-152q-196 0 -196 211v324q0 112 -45 168t-138 61z" />
<glyph unicode="|" horiz-adv-x="456" d="M176 -166v1495h105v-1495h-105z" />
<glyph unicode="}" horiz-adv-x="620" d="M37 -207h125q67 0 93 37t26 104v316q0 213 165 266q-86 29 -125.5 94.5t-39.5 173.5v316q0 66 -26 102.5t-93 36.5h-125v90h151q197 0 197 -209v-323q0 -223 182 -232v-98q-92 -5 -137 -61t-45 -168v-324q0 -211 -197 -211h-151v90z" />
<glyph unicode="~" horiz-adv-x="1261" d="M201 539q0 91 58 144.5t157 53.5q75 0 149 -27t144.5 -54t134.5 -27q61 0 93 28t32 80h96q0 -90 -57.5 -144t-155.5 -54q-63 0 -125.5 17t-104.5 37t-95.5 37t-100.5 17q-62 0 -95.5 -28.5t-33.5 -79.5h-96z" />
<glyph unicode="&#xa1;" horiz-adv-x="405" d="M137 838v135h131v-135h-131zM152 127l22 487h57l25 -487v-483h-104v483z" />
<glyph unicode="&#xa2;" horiz-adv-x="1013" d="M84 666q0 180 119 311t295 151v201h96v-201q109 -9 198.5 -62.5t147.5 -145.5l-82 -50q-110 166 -309 166q-157 0 -262 -106t-105 -264q0 -159 105 -265t262 -106q202 0 313 168l82 -49q-60 -94 -150.5 -149t-199.5 -64v-201h-96v201q-176 20 -295 152.5t-119 312.5z" />
<glyph unicode="&#xa3;" horiz-adv-x="1032" d="M86 549v94h201q-11 27 -46 93.5t-52 125.5t-17 139q0 153 101.5 251t279.5 98q179 0 289 -100t110 -294h-106q0 144 -78 218.5t-211 74.5q-132 0 -205 -71t-73 -181q0 -75 18.5 -133t52.5 -121.5t47 -99.5h426v-94h-401q4 -46 4 -72q0 -46 -6.5 -85t-24 -75t-31 -60 t-44 -57t-45.5 -48t-52 -50h711v-102h-840v92q34 32 48 45.5t42 41.5t39.5 43t31.5 41.5t28 46.5t18.5 47.5t14 55.5t3.5 60q0 41 -6 76h-227z" />
<glyph unicode="&#xa4;" horiz-adv-x="1196" d="M117 281l141 143q-88 115 -88 268t86 266l-139 140l67 69l140 -139q112 92 274 92t274 -92l140 139l69 -69l-139 -140q86 -113 86 -266q0 -155 -88 -270l141 -141l-69 -68l-142 139q-118 -88 -272 -88q-155 0 -272 90l-142 -141zM266 692q0 -148 93.5 -243t238.5 -95 q146 0 240 95t94 243q0 147 -94 242.5t-240 95.5q-144 0 -238 -95.5t-94 -242.5z" />
<glyph unicode="&#xa5;" horiz-adv-x="1273" d="M57 1329h121l459 -676l459 676h116l-378 -555h303v-86h-361l-88 -129v-106h449v-86h-449v-367h-104v367h-447v86h447v106l-88 129h-359v86h299z" />
<glyph unicode="&#xa6;" horiz-adv-x="456" d="M176 -166v584h105v-584h-105zM176 745v584h105v-584h-105z" />
<glyph unicode="&#xa7;" horiz-adv-x="952" d="M92 594q0 186 195 262q-77 36 -119.5 89.5t-42.5 139.5q0 117 103 190t270 73q100 0 191.5 -36.5t146.5 -99.5l-68 -61q-47 52 -119 80.5t-151 28.5q-127 0 -202 -49t-75 -126q0 -43 22 -76t59 -55t85 -40.5t101.5 -35.5t106.5 -35.5t101 -45.5t85 -61t59 -85.5 t22 -115.5q0 -188 -182 -261q71 -39 110 -93t39 -136q0 -118 -103 -191t-271 -73q-98 0 -189.5 37t-148.5 100l67 62q49 -53 120.5 -82t150.5 -29q127 0 201.5 49t74.5 127q0 43 -22 77t-59 57.5t-85 43.5t-101 38t-105.5 37.5t-100.5 46t-85 59.5t-59 81.5t-22 108.5z M188 600q0 -39 12 -70.5t36.5 -56t51 -43t67.5 -35t73 -28t81 -27.5t79 -27q178 52 178 215q0 36 -10 66.5t-24 52.5t-40.5 42.5t-48.5 33.5t-59.5 28t-62 23t-68.5 22l-66 21q-199 -50 -199 -217z" />
<glyph unicode="&#xa8;" horiz-adv-x="1228" d="M147 1192v135h134v-135h-134zM535 1192v135h133v-135h-133z" />
<glyph unicode="&#xa9;" horiz-adv-x="1515" d="M90 664q0 146 51.5 274t140.5 218t212.5 142t263.5 52t263 -52t212 -142t140.5 -218t51.5 -274t-52 -274t-141.5 -217.5t-212.5 -141t-261 -51.5q-185 0 -337.5 87.5t-241.5 244.5t-89 352zM174 664q0 -261 167 -435t417 -174q124 0 232.5 46.5t185.5 127t121 193.5 t44 242q0 171 -75 310.5t-209 219.5t-299 80t-299 -80t-209.5 -219.5t-75.5 -310.5zM389 666q0 159 111 270t270 111q99 0 181 -43.5t136 -126.5l-71 -43q-41 64 -105 97.5t-141 33.5q-126 0 -210.5 -86.5t-84.5 -212.5t84.5 -212.5t210.5 -86.5q77 0 142.5 34.5t107.5 98.5 l72 -45q-55 -82 -139 -126t-183 -44q-158 0 -269.5 111.5t-111.5 269.5z" />
<glyph unicode="&#xaa;" horiz-adv-x="874" d="M86 1024q0 133 90.5 224t214.5 91q87 0 154.5 -41t101.5 -114v145h90v-610h-90v141q-36 -72 -102.5 -112.5t-153.5 -40.5q-124 0 -214.5 91.5t-90.5 225.5zM176 1024q0 -96 64 -162.5t157 -66.5q95 0 159.5 65.5t64.5 163.5t-64.5 163.5t-159.5 65.5q-93 0 -157 -66.5 t-64 -162.5z" />
<glyph unicode="&#xab;" horiz-adv-x="917" d="M80 477l274 336h107l-268 -336l270 -338h-111zM416 477l274 336h109l-271 -336l271 -338h-109z" />
<glyph unicode="&#xac;" horiz-adv-x="1261" d="M176 578v98h901v-397h-106v299h-795z" />
<glyph unicode="&#xad;" horiz-adv-x="823" d="M125 489v99h571v-99h-571z" />
<glyph unicode="&#xae;" horiz-adv-x="1515" d="M90 664q0 146 51.5 274t140.5 218t212.5 142t263.5 52t263 -52t212 -142t140.5 -218t51.5 -274t-52 -274t-141.5 -217.5t-212.5 -141t-261 -51.5q-185 0 -337.5 87.5t-241.5 244.5t-89 352zM174 664q0 -261 167 -435t417 -174q124 0 232.5 46.5t185.5 127t121 193.5 t44 242q0 171 -75 310.5t-209 219.5t-299 80t-299 -80t-209.5 -219.5t-75.5 -310.5zM545 283v774h217q135 0 216 -62.5t81 -167.5q0 -87 -53.5 -146.5t-147.5 -78.5l203 -319h-96l-195 311h-143v-311h-82zM627 666h139q99 0 155 42t56 117q0 74 -56.5 116t-154.5 42h-139 v-317z" />
<glyph unicode="&#xaf;" horiz-adv-x="1228" d="M123 1225v92h625v-92h-625z" />
<glyph unicode="&#xb0;" horiz-adv-x="733" d="M86 1061q0 117 79 197.5t202 80.5t201.5 -80.5t78.5 -197.5q0 -116 -79 -197.5t-201 -81.5t-201.5 81.5t-79.5 197.5zM172 1061q0 -81 54 -137.5t141 -57.5q86 0 140 56.5t54 138.5q0 84 -53 139t-141 55t-141.5 -55.5t-53.5 -138.5z" />
<glyph unicode="&#xb1;" horiz-adv-x="1261" d="M180 160v98h901v-98h-901zM180 762v98h402v350h98v-350h401v-98h-401v-352h-98v352h-402z" />
<glyph unicode="&#xb2;" horiz-adv-x="731" d="M117 598v61l266 269q63 65 88 107.5t25 97.5t-33 85.5t-96 30.5q-146 0 -146 -155h-94q0 125 65.5 185t174.5 60q106 0 164.5 -55t58.5 -145q0 -71 -31 -131t-102 -131l-185 -189h342v-90h-497z" />
<glyph unicode="&#xb3;" horiz-adv-x="679" d="M84 791l86 30q29 -147 174 -147q69 0 107 39t38 102q0 61 -43.5 101t-111.5 40h-51l-43 64l204 221h-325v88h440v-88l-199 -221q108 -6 164 -64.5t56 -146.5q0 -91 -63.5 -156t-172.5 -65q-101 0 -170 51t-90 152z" />
<glyph unicode="&#xb4;" horiz-adv-x="1228" d="M123 1163l420 256l47 -88l-424 -248z" />
<glyph unicode="&#xb5;" horiz-adv-x="1167" d="M160 -250v1223h100v-524q0 -95 28.5 -168.5t78 -117.5t110.5 -66.5t131 -22.5q145 0 230.5 91.5t85.5 254.5v553h100v-586q0 -190 -110.5 -298.5t-288.5 -108.5q-135 0 -231 63t-134 170v-463h-100z" />
<glyph unicode="&#xb6;" horiz-adv-x="1212" d="M59 920q0 180 114.5 294.5t330.5 114.5h626v-90h-124v-1405h-93v1405h-258v-1405h-98v678h-53q-220 0 -332.5 112t-112.5 296z" />
<glyph unicode="&#xb7;" horiz-adv-x="393" d="M127 535v139h137v-139h-137z" />
<glyph unicode="&#xb8;" horiz-adv-x="1228" d="M111 -385l53 59q62 -65 151 -65q61 0 93 28t32 74q0 50 -35 78.5t-102 28.5h-86l55 182h84l-34 -109h18q87 0 139.5 -50t52.5 -130q0 -76 -58.5 -128t-154.5 -52q-134 0 -208 84z" />
<glyph unicode="&#xb9;" horiz-adv-x="450" d="M51 1235v94h260v-731h-104v637h-156z" />
<glyph unicode="&#xba;" horiz-adv-x="811" d="M84 1024q0 131 90.5 223t231.5 92q139 0 230 -93t91 -224t-91 -224t-230 -93q-141 0 -231.5 93.5t-90.5 225.5zM176 1022q0 -96 64 -161.5t166 -65.5t165.5 65.5t63.5 161.5q0 97 -63.5 163t-165.5 66t-166 -66t-64 -163z" />
<glyph unicode="&#xbb;" horiz-adv-x="917" d="M117 139l270 338l-268 336h108l273 -336l-273 -338h-110zM453 139l272 338l-270 336h108l275 -336l-275 -338h-110z" />
<glyph unicode="&#xbc;" horiz-adv-x="1306" d="M63 1235v94h261v-731h-105v637h-156zM219 0l660 1329h94l-658 -1329h-96zM682 190v91l205 450h104l-200 -450h264v241h98v-241h94v-91h-94v-190h-98v190h-373z" />
<glyph unicode="&#xbd;" horiz-adv-x="1310" d="M61 1235v94h261v-731h-105v637h-156zM217 0l660 1329h94l-660 -1329h-94zM743 0v61l267 269q63 64 87.5 106.5t24.5 98.5q0 55 -33 85.5t-96 30.5q-145 0 -145 -155h-94q0 125 65.5 185t173.5 60q106 0 165 -55t59 -145q0 -71 -31 -130.5t-103 -131.5l-184 -189h342v-90 h-498z" />
<glyph unicode="&#xbe;" horiz-adv-x="1466" d="M68 791l84 30q33 -147 176 -147q69 0 106 39t37 102q0 62 -43.5 101.5t-110.5 39.5h-51l-43 64l203 221h-324v88h441v-88l-201 -221q108 -6 164.5 -64.5t56.5 -146.5q0 -91 -63.5 -156t-171.5 -65q-101 0 -170.5 51t-89.5 152zM381 0l659 1329h95l-660 -1329h-94z M842 190v91l205 450h106l-203 -450h264v241h99v-241h96v-91h-96v-190h-99v190h-372z" />
<glyph unicode="&#xbf;" horiz-adv-x="892" d="M72 -33q0 57 18 108.5t47 91t64 76.5t70.5 70.5t64.5 66t47 70t18 76.5v88h103v-94q0 -62 -34 -121t-82 -106.5l-96 -95t-82 -106.5t-34 -122q0 -111 71 -179.5t202 -68.5q128 0 206 81.5t78 240.5h105q0 -107 -31 -189t-86 -131.5t-125.5 -74.5t-153.5 -25 q-175 0 -272.5 95.5t-97.5 248.5zM387 838v135h131v-135h-131z" />
<glyph unicode="&#xc0;" d="M31 0l524 1329h131l524 -1329h-106l-152 383h-659l-152 -383h-110zM332 481h581l-290 744zM387 1698l51 94l418 -256l-45 -84z" />
<glyph unicode="&#xc1;" d="M31 0l524 1329h131l524 -1329h-106l-152 383h-659l-152 -383h-110zM332 481h581l-290 744zM387 1536l420 256l49 -94l-424 -246z" />
<glyph unicode="&#xc2;" d="M31 0l524 1329h131l524 -1329h-106l-152 383h-659l-152 -383h-110zM279 1524l315 264h55l318 -264l-54 -74l-290 236l-291 -236zM332 481h581l-290 744z" />
<glyph unicode="&#xc3;" d="M31 0l524 1329h131l524 -1329h-106l-152 383h-659l-152 -383h-110zM279 1530q0 91 52 145t140 54q44 0 87 -18t72 -39.5t66 -39.5t70 -18q115 0 115 106h84q0 -89 -52.5 -143.5t-138.5 -54.5q-45 0 -88 18t-72 39t-65.5 39t-69.5 18q-114 0 -114 -106h-86zM332 481h581 l-290 744z" />
<glyph unicode="&#xc4;" d="M31 0l524 1329h131l524 -1329h-106l-152 383h-659l-152 -383h-110zM332 481h581l-290 744zM348 1546v154h152v-154h-152zM739 1546v154h152v-154h-152z" />
<glyph unicode="&#xc5;" d="M31 0l524 1329h131l524 -1329h-106l-152 383h-659l-152 -383h-110zM332 481h581l-290 744zM414 1665q0 83 59 141t150 58q90 0 149 -58t59 -141q0 -86 -59 -144.5t-149 -58.5q-91 0 -150 58.5t-59 144.5zM496 1663q0 -51 35.5 -87t91.5 -36q54 0 89.5 36t35.5 87 q0 52 -35 87.5t-90 35.5q-56 0 -91.5 -35.5t-35.5 -87.5z" />
<glyph unicode="&#xc6;" horiz-adv-x="1710" d="M-20 0l835 1329h805v-98h-651v-498h592v-98h-592v-537h653v-98h-758v387h-526l-242 -387h-116zM399 487h465v746z" />
<glyph unicode="&#xc7;" horiz-adv-x="1376" d="M90 664q0 194 87 351t240 246t341 89q177 0 324.5 -82.5t236.5 -225.5l-88 -57q-74 124 -197.5 194t-275.5 70q-159 0 -287.5 -77.5t-200 -211.5t-71.5 -296t71.5 -295.5t200 -211t287.5 -77.5q151 0 274.5 70.5t198.5 193.5l88 -55q-87 -141 -229 -223t-314 -86l-31 -89 h21q86 0 139 -50t53 -130q0 -76 -58.5 -128t-154.5 -52q-134 0 -208 84l53 59q62 -65 151 -65q61 0 93 28t32 74q0 50 -35 78.5t-102 28.5h-88l51 164q-262 25 -432 216t-170 466z" />
<glyph unicode="&#xc8;" horiz-adv-x="1024" d="M178 0v1329h756v-98h-651v-498h591v-98h-591v-537h653v-98h-758zM354 1698l49 94l420 -256l-45 -84z" />
<glyph unicode="&#xc9;" horiz-adv-x="1024" d="M178 0v1329h756v-98h-651v-498h591v-98h-591v-537h653v-98h-758zM354 1536l418 256l51 -94l-424 -246z" />
<glyph unicode="&#xca;" horiz-adv-x="1024" d="M178 0v1329h756v-98h-651v-498h591v-98h-591v-537h653v-98h-758zM246 1524l315 264h55l318 -264l-55 -74l-289 236l-291 -236z" />
<glyph unicode="&#xcb;" horiz-adv-x="1024" d="M178 0v1329h756v-98h-651v-498h591v-98h-591v-537h653v-98h-758zM315 1546v154h152v-154h-152zM707 1546v154h151v-154h-151z" />
<glyph unicode="&#xcc;" horiz-adv-x="462" d="M-2 1698l49 94l420 -256l-47 -84zM178 0v1329h107v-1329h-107z" />
<glyph unicode="&#xcd;" horiz-adv-x="462" d="M-2 1536l418 256l51 -94l-424 -246zM178 0v1329h107v-1329h-107z" />
<glyph unicode="&#xce;" horiz-adv-x="462" d="M-113 1524l318 264h55l315 -264l-53 -74l-291 236l-290 -236zM178 0v1329h107v-1329h-107z" />
<glyph unicode="&#xcf;" horiz-adv-x="462" d="M-41 1546v154h152v-154h-152zM178 0v1329h107v-1329h-107zM350 1546v154h152v-154h-152z" />
<glyph unicode="&#xd0;" horiz-adv-x="1378" d="M35 618v95h162v616h430q152 0 277 -51t208 -140.5t128.5 -210.5t45.5 -261q0 -141 -46 -263t-130 -211.5t-208.5 -140.5t-274.5 -51h-430v618h-162zM301 100h326q158 0 281.5 65.5t196.5 195t73 305.5q0 175 -73 304t-196.5 194t-281.5 65h-326v-516h385v-95h-385v-518z " />
<glyph unicode="&#xd1;" horiz-adv-x="1462" d="M178 0v1329h125l875 -1171v1171h104v-1329h-113l-886 1186v-1186h-105zM403 1530q0 91 52.5 145t140.5 54q44 0 87 -18t72 -39.5t66 -39.5t70 -18q115 0 115 106h84q0 -89 -52.5 -143.5t-138.5 -54.5q-45 0 -88 18t-72 39t-65.5 39t-69.5 18q-57 0 -86 -27.5t-29 -78.5 h-86z" />
<glyph unicode="&#xd2;" horiz-adv-x="1515" d="M90 664q0 193 88 350.5t241 246.5t339 89q185 0 338 -88.5t241 -246t88 -351.5q0 -145 -52 -273t-141 -217.5t-212 -141.5t-262 -52q-185 0 -337.5 87.5t-241.5 244.5t-89 352zM199 664q0 -164 72 -297.5t200.5 -210t286.5 -76.5t287 77t201.5 210.5t72.5 296.5t-72 297 t-201 211t-288 77t-287.5 -77.5t-200 -211.5t-71.5 -296zM522 1698l51 94l420 -256l-47 -84z" />
<glyph unicode="&#xd3;" horiz-adv-x="1515" d="M90 664q0 193 88 350.5t241 246.5t339 89q185 0 338 -88.5t241 -246t88 -351.5q0 -145 -52 -273t-141 -217.5t-212 -141.5t-262 -52q-185 0 -337.5 87.5t-241.5 244.5t-89 352zM199 664q0 -164 72 -297.5t200.5 -210t286.5 -76.5t287 77t201.5 210.5t72.5 296.5t-72 297 t-201 211t-288 77t-287.5 -77.5t-200 -211.5t-71.5 -296zM522 1536l420 256l51 -94l-424 -246z" />
<glyph unicode="&#xd4;" horiz-adv-x="1515" d="M90 664q0 193 88 350.5t241 246.5t339 89q185 0 338 -88.5t241 -246t88 -351.5q0 -145 -52 -273t-141 -217.5t-212 -141.5t-262 -52q-185 0 -337.5 87.5t-241.5 244.5t-89 352zM199 664q0 -164 72 -297.5t200.5 -210t286.5 -76.5t287 77t201.5 210.5t72.5 296.5t-72 297 t-201 211t-288 77t-287.5 -77.5t-200 -211.5t-71.5 -296zM414 1524l317 264h55l316 -264l-53 -74l-291 236l-291 -236z" />
<glyph unicode="&#xd5;" horiz-adv-x="1515" d="M90 664q0 193 88 350.5t241 246.5t339 89q185 0 338 -88.5t241 -246t88 -351.5q0 -145 -52 -273t-141 -217.5t-212 -141.5t-262 -52q-185 0 -337.5 87.5t-241.5 244.5t-89 352zM199 664q0 -164 72 -297.5t200.5 -210t286.5 -76.5t287 77t201.5 210.5t72.5 296.5t-72 297 t-201 211t-288 77t-287.5 -77.5t-200 -211.5t-71.5 -296zM416 1530q0 91 51.5 145t140.5 54q44 0 87 -18t72 -39.5t65.5 -39.5t68.5 -18q115 0 115 106h86q0 -89 -52.5 -143.5t-140.5 -54.5q-45 0 -88 18t-71.5 39t-65 39t-68.5 18q-57 0 -86.5 -28t-29.5 -78h-84z" />
<glyph unicode="&#xd6;" horiz-adv-x="1515" d="M90 664q0 193 88 350.5t241 246.5t339 89q185 0 338 -88.5t241 -246t88 -351.5q0 -145 -52 -273t-141 -217.5t-212 -141.5t-262 -52q-185 0 -337.5 87.5t-241.5 244.5t-89 352zM199 664q0 -164 72 -297.5t200.5 -210t286.5 -76.5t287 77t201.5 210.5t72.5 296.5t-72 297 t-201 211t-288 77t-287.5 -77.5t-200 -211.5t-71.5 -296zM485 1546v154h152v-154h-152zM877 1546v154h151v-154h-151z" />
<glyph unicode="&#xd7;" horiz-adv-x="1261" d="M252 315l309 310l-309 309l67 72l312 -312l309 312l70 -72l-310 -309l310 -310l-70 -69l-309 309l-312 -309z" />
<glyph unicode="&#xd8;" horiz-adv-x="1540" d="M90 55l166 166q-152 189 -152 443q0 193 88 350.5t241 246.5t339 89q127 0 241.5 -44t203.5 -124l157 157l72 -73l-158 -158q152 -189 152 -444q0 -194 -89 -351t-241.5 -245t-337.5 -88q-257 0 -446 165l-164 -163zM211 664q0 -212 119 -369l813 813q-154 141 -371 141 q-159 0 -288 -77.5t-201 -211.5t-72 -296zM399 219q155 -139 373 -139q158 0 286.5 77t200.5 210.5t72 296.5q0 211 -119 368z" />
<glyph unicode="&#xd9;" horiz-adv-x="1409" d="M162 555v774h106v-770q0 -244 116 -361.5t321 -117.5q204 0 320 117.5t116 361.5v770h104v-774q0 -281 -144 -428t-396 -147q-253 0 -398 147t-145 428zM469 1698l51 94l418 -256l-45 -84z" />
<glyph unicode="&#xda;" horiz-adv-x="1409" d="M162 555v774h106v-770q0 -244 116 -361.5t321 -117.5q204 0 320 117.5t116 361.5v770h104v-774q0 -281 -144 -428t-396 -147q-253 0 -398 147t-145 428zM469 1536l420 256l49 -94l-424 -246z" />
<glyph unicode="&#xdb;" horiz-adv-x="1409" d="M162 555v774h106v-770q0 -244 116 -361.5t321 -117.5q204 0 320 117.5t116 361.5v770h104v-774q0 -281 -144 -428t-396 -147q-253 0 -398 147t-145 428zM360 1524l316 264h55l318 -264l-54 -74l-290 236l-291 -236z" />
<glyph unicode="&#xdc;" horiz-adv-x="1409" d="M162 555v774h106v-770q0 -244 116 -361.5t321 -117.5q204 0 320 117.5t116 361.5v770h104v-774q0 -281 -144 -428t-396 -147q-253 0 -398 147t-145 428zM430 1546v154h152v-154h-152zM823 1546v154h152v-154h-152z" />
<glyph unicode="&#xdd;" horiz-adv-x="1234" d="M39 1329h121l458 -676l459 676h117l-524 -770v-559h-105v559zM383 1536l418 256l51 -94l-424 -246z" />
<glyph unicode="&#xde;" horiz-adv-x="1116" d="M178 0v1329h105v-248h282q214 0 342.5 -118t128.5 -297q0 -180 -127 -296t-344 -116h-282v-254h-105zM283 352h280q174 0 270.5 87.5t96.5 226.5q0 138 -98.5 227.5t-268.5 89.5h-280v-631z" />
<glyph unicode="&#xdf;" horiz-adv-x="1112" d="M160 0v958q0 208 108 326.5t303 118.5q176 0 284 -99t108 -257q0 -122 -60 -206.5t-162 -117.5q138 -34 213.5 -124t75.5 -226q0 -178 -132 -275.5t-363 -97.5h-95v94h95q191 0 293 75t102 212q0 134 -99.5 213.5t-273.5 79.5h-117v92h107q152 0 233.5 71t81.5 203 q0 121 -79 195t-212 74q-151 0 -231 -90t-80 -263v-956h-100z" />
<glyph unicode="&#xe0;" horiz-adv-x="1241" d="M82 485q0 141 68 258t179.5 182.5t239.5 65.5q141 0 249 -66.5t163 -183.5v232h100v-973h-102v227q-56 -116 -163.5 -181.5t-246.5 -65.5q-95 0 -184 38.5t-156 104.5t-107 161t-40 201zM182 485q0 -172 116.5 -290.5t281.5 -118.5q171 0 287 117.5t116 291.5 q0 175 -116.5 293.5t-286.5 118.5q-165 0 -281.5 -119t-116.5 -293zM367 1329l47 88l420 -256l-46 -80z" />
<glyph unicode="&#xe1;" horiz-adv-x="1241" d="M82 485q0 141 68 258t179.5 182.5t239.5 65.5q141 0 249 -66.5t163 -183.5v232h100v-973h-102v227q-56 -116 -163.5 -181.5t-246.5 -65.5q-95 0 -184 38.5t-156 104.5t-107 161t-40 201zM182 485q0 -172 116.5 -290.5t281.5 -118.5q171 0 287 117.5t116 291.5 q0 175 -116.5 293.5t-286.5 118.5q-165 0 -281.5 -119t-116.5 -293zM367 1163l417 256l50 -88l-424 -248z" />
<glyph unicode="&#xe2;" horiz-adv-x="1241" d="M82 485q0 141 68 258t179.5 182.5t239.5 65.5q141 0 249 -66.5t163 -183.5v232h100v-973h-102v227q-56 -116 -163.5 -181.5t-246.5 -65.5q-95 0 -184 38.5t-156 104.5t-107 161t-40 201zM182 485q0 -172 116.5 -290.5t281.5 -118.5q171 0 287 117.5t116 291.5 q0 175 -116.5 293.5t-286.5 118.5q-165 0 -281.5 -119t-116.5 -293zM256 1157l315 262h56l317 -262l-53 -74l-291 234l-291 -234z" />
<glyph unicode="&#xe3;" horiz-adv-x="1241" d="M82 485q0 141 68 258t179.5 182.5t239.5 65.5q141 0 249 -66.5t163 -183.5v232h100v-973h-102v227q-56 -116 -163.5 -181.5t-246.5 -65.5q-95 0 -184 38.5t-156 104.5t-107 161t-40 201zM182 485q0 -172 116.5 -290.5t281.5 -118.5q171 0 287 117.5t116 291.5 q0 175 -116.5 293.5t-286.5 118.5q-165 0 -281.5 -119t-116.5 -293zM256 1180q0 90 53 144t142 54q44 0 87 -18t71.5 -40t65 -40t68.5 -18q117 0 117 108h82q0 -91 -52 -145t-138 -54q-45 0 -88 18.5t-72 40t-65.5 40t-69.5 18.5q-58 0 -87.5 -28t-29.5 -80h-84z" />
<glyph unicode="&#xe4;" horiz-adv-x="1241" d="M82 485q0 141 68 258t179.5 182.5t239.5 65.5q141 0 249 -66.5t163 -183.5v232h100v-973h-102v227q-56 -116 -163.5 -181.5t-246.5 -65.5q-95 0 -184 38.5t-156 104.5t-107 161t-40 201zM182 485q0 -172 116.5 -290.5t281.5 -118.5q171 0 287 117.5t116 291.5 q0 175 -116.5 293.5t-286.5 118.5q-165 0 -281.5 -119t-116.5 -293zM338 1192v135h133v-135h-133zM725 1192v135h133v-135h-133z" />
<glyph unicode="&#xe5;" horiz-adv-x="1241" d="M82 485q0 141 68 258t179.5 182.5t239.5 65.5q141 0 249 -66.5t163 -183.5v232h100v-973h-102v227q-56 -116 -163.5 -181.5t-246.5 -65.5q-95 0 -184 38.5t-156 104.5t-107 161t-40 201zM182 485q0 -172 116.5 -290.5t281.5 -118.5q171 0 287 117.5t116 291.5 q0 175 -116.5 293.5t-286.5 118.5q-165 0 -281.5 -119t-116.5 -293zM393 1272q0 83 58.5 140.5t148.5 57.5t148.5 -57.5t58.5 -140.5q0 -84 -58.5 -141.5t-148.5 -57.5t-148.5 57.5t-58.5 141.5zM475 1272q0 -51 35 -87t90 -36t90 36t35 87q0 52 -34.5 87.5t-90.5 35.5 t-90.5 -35.5t-34.5 -87.5z" />
<glyph unicode="&#xe6;" horiz-adv-x="2035" d="M82 485q0 141 68 258t179.5 182.5t239.5 65.5q141 0 249 -66.5t163 -183.5v232h100v-195q66 98 170.5 155.5t225.5 57.5q133 0 245.5 -67t177 -180t64.5 -244q0 -7 -4 -43h-877q9 -167 124 -276t284 -109q106 0 195 42.5t143 118.5l72 -53q-65 -94 -172.5 -147 t-235.5 -53q-127 0 -235.5 58t-176.5 159v-197h-102v227q-56 -116 -163.5 -181.5t-246.5 -65.5q-95 0 -184 38.5t-156 104.5t-107 161t-40 201zM182 485q0 -172 116.5 -290.5t281.5 -118.5q171 0 287 117.5t116 291.5q0 175 -116.5 293.5t-286.5 118.5q-165 0 -281.5 -119 t-116.5 -293zM1087 539h775q-12 159 -121.5 259.5t-265.5 100.5q-151 0 -262 -102t-126 -258z" />
<glyph unicode="&#xe7;" horiz-adv-x="1071" d="M82 485q0 212 148 359t360 147q131 0 241.5 -58t180.5 -165l-82 -49q-56 87 -144.5 132.5t-195.5 45.5q-174 0 -291 -118.5t-117 -293.5q0 -174 117 -291.5t291 -117.5q108 0 197.5 46t148.5 134l80 -51q-67 -99 -166 -156.5t-217 -66.5l-29 -91h21q86 0 139 -50t53 -130 q0 -75 -59 -127.5t-154 -52.5q-66 0 -121 22.5t-88 61.5l51 59q62 -65 154 -65q60 0 92.5 28t32.5 74q0 50 -35 78.5t-102 28.5h-88l49 164q-197 15 -332 159.5t-135 343.5z" />
<glyph unicode="&#xe8;" horiz-adv-x="1134" d="M82 487q0 137 65 253t178 183.5t248 67.5q132 0 245 -67t178 -180t65 -244q0 -25 -2 -43h-877q9 -167 124 -276t284 -109q106 0 195 42.5t143 118.5l71 -53q-65 -94 -173.5 -147t-235.5 -53q-139 0 -256 67t-184.5 183.5t-67.5 256.5zM186 539h772q-10 159 -120 259.5 t-265 100.5q-151 0 -261.5 -102t-125.5 -258zM338 1329l47 88l420 -256l-45 -80z" />
<glyph unicode="&#xe9;" horiz-adv-x="1134" d="M82 487q0 137 65 253t178 183.5t248 67.5q132 0 245 -67t178 -180t65 -244q0 -25 -2 -43h-877q9 -167 124 -276t284 -109q106 0 195 42.5t143 118.5l71 -53q-65 -94 -173.5 -147t-235.5 -53q-139 0 -256 67t-184.5 183.5t-67.5 256.5zM186 539h772q-10 159 -120 259.5 t-265 100.5q-151 0 -261.5 -102t-125.5 -258zM338 1163l418 256l49 -88l-424 -248z" />
<glyph unicode="&#xea;" horiz-adv-x="1134" d="M82 487q0 137 65 253t178 183.5t248 67.5q132 0 245 -67t178 -180t65 -244q0 -25 -2 -43h-877q9 -167 124 -276t284 -109q106 0 195 42.5t143 118.5l71 -53q-65 -94 -173.5 -147t-235.5 -53q-139 0 -256 67t-184.5 183.5t-67.5 256.5zM186 539h772q-10 159 -120 259.5 t-265 100.5q-151 0 -261.5 -102t-125.5 -258zM227 1157l316 262h55l317 -262l-53 -74l-291 234l-290 -234z" />
<glyph unicode="&#xeb;" horiz-adv-x="1134" d="M82 487q0 137 65 253t178 183.5t248 67.5q132 0 245 -67t178 -180t65 -244q0 -25 -2 -43h-877q9 -167 124 -276t284 -109q106 0 195 42.5t143 118.5l71 -53q-65 -94 -173.5 -147t-235.5 -53q-139 0 -256 67t-184.5 183.5t-67.5 256.5zM186 539h772q-10 159 -120 259.5 t-265 100.5q-151 0 -261.5 -102t-125.5 -258zM309 1192v135h133v-135h-133zM696 1192v135h133v-135h-133z" />
<glyph unicode="&#xec;" horiz-adv-x="421" d="M-23 1329l48 88l419 -256l-43 -80zM160 0v973h102v-973h-102z" />
<glyph unicode="&#xed;" horiz-adv-x="421" d="M-23 1163l418 256l49 -88l-424 -248zM160 0v973h102v-973h-102z" />
<glyph unicode="&#xee;" horiz-adv-x="421" d="M-133 1157l315 262h58l315 -262l-53 -74l-291 234l-291 -234zM160 0v973h102v-973h-102z" />
<glyph unicode="&#xef;" horiz-adv-x="421" d="M-51 1192v135h133v-135h-133zM160 0v973h102v-973h-102zM336 1192v135h133v-135h-133z" />
<glyph unicode="&#xf0;" horiz-adv-x="1198" d="M82 477q0 134 67 250t183.5 185t253.5 69q120 0 219 -58.5t160 -162.5q-24 153 -103.5 272.5t-197.5 192.5l-121 -158l-72 47l115 152q-121 51 -244 51v86q162 0 301 -62l107 142l73 -47l-102 -136q173 -106 272 -306t99 -474q0 -126 -40 -229t-109.5 -170.5t-161 -104 t-195.5 -36.5q-135 0 -251 67t-184.5 181.5t-68.5 248.5zM182 477q0 -106 53 -199t146.5 -149.5t204.5 -56.5q112 0 205.5 56.5t146.5 149.5t53 199t-52 200.5t-146 153t-207 58.5q-112 0 -206 -58.5t-146 -153t-52 -200.5z" />
<glyph unicode="&#xf1;" horiz-adv-x="1171" d="M160 0v973h100v-213q39 108 135 169.5t230 61.5q178 0 289.5 -105t111.5 -294v-592h-102v545q0 166 -85.5 259t-230.5 93q-68 0 -128.5 -22t-110 -65.5t-78.5 -116.5t-29 -167v-526h-102zM246 1180q0 90 52.5 144t139.5 54q44 0 87 -18t72 -40t66 -40t70 -18 q117 0 117 108h82q0 -91 -52.5 -145t-138.5 -54q-45 0 -88 18.5t-72 40t-65.5 40t-69.5 18.5q-116 0 -116 -108h-84z" />
<glyph unicode="&#xf2;" horiz-adv-x="1177" d="M82 483q0 135 67.5 252t184.5 186.5t256 69.5q138 0 255 -69.5t184 -186.5t67 -252q0 -136 -68.5 -252t-185 -183.5t-252.5 -67.5q-137 0 -254 67.5t-185.5 183.5t-68.5 252zM182 483q0 -164 119.5 -285.5t288.5 -121.5q111 0 204.5 56.5t147 150.5t53.5 200t-52 201 t-146 154t-207 59t-208 -59t-147.5 -154t-52.5 -201zM356 1329l47 88l420 -256l-45 -80z" />
<glyph unicode="&#xf3;" horiz-adv-x="1177" d="M82 483q0 135 67.5 252t184.5 186.5t256 69.5q138 0 255 -69.5t184 -186.5t67 -252q0 -136 -68.5 -252t-185 -183.5t-252.5 -67.5q-137 0 -254 67.5t-185.5 183.5t-68.5 252zM182 483q0 -164 119.5 -285.5t288.5 -121.5q111 0 204.5 56.5t147 150.5t53.5 200t-52 201 t-146 154t-207 59t-208 -59t-147.5 -154t-52.5 -201zM356 1163l418 256l49 -88l-424 -248z" />
<glyph unicode="&#xf4;" horiz-adv-x="1177" d="M82 483q0 135 67.5 252t184.5 186.5t256 69.5q138 0 255 -69.5t184 -186.5t67 -252q0 -136 -68.5 -252t-185 -183.5t-252.5 -67.5q-137 0 -254 67.5t-185.5 183.5t-68.5 252zM182 483q0 -164 119.5 -285.5t288.5 -121.5q111 0 204.5 56.5t147 150.5t53.5 200t-52 201 t-146 154t-207 59t-208 -59t-147.5 -154t-52.5 -201zM246 1157l315 262h55l318 -262l-53 -74l-291 234l-291 -234z" />
<glyph unicode="&#xf5;" horiz-adv-x="1177" d="M82 483q0 135 67.5 252t184.5 186.5t256 69.5q138 0 255 -69.5t184 -186.5t67 -252q0 -136 -68.5 -252t-185 -183.5t-252.5 -67.5q-137 0 -254 67.5t-185.5 183.5t-68.5 252zM182 483q0 -164 119.5 -285.5t288.5 -121.5q111 0 204.5 56.5t147 150.5t53.5 200t-52 201 t-146 154t-207 59t-208 -59t-147.5 -154t-52.5 -201zM246 1180q0 90 52.5 144t139.5 54q44 0 87 -18t72 -40t66 -40t70 -18q117 0 117 108h82q0 -91 -52.5 -145t-138.5 -54q-45 0 -88 18.5t-72 40t-65.5 40t-69.5 18.5q-58 0 -87 -28t-29 -80h-84z" />
<glyph unicode="&#xf6;" horiz-adv-x="1177" d="M82 483q0 135 67.5 252t184.5 186.5t256 69.5q138 0 255 -69.5t184 -186.5t67 -252q0 -136 -68.5 -252t-185 -183.5t-252.5 -67.5q-137 0 -254 67.5t-185.5 183.5t-68.5 252zM182 483q0 -164 119.5 -285.5t288.5 -121.5q111 0 204.5 56.5t147 150.5t53.5 200t-52 201 t-146 154t-207 59t-208 -59t-147.5 -154t-52.5 -201zM328 1192v135h133v-135h-133zM715 1192v135h133v-135h-133z" />
<glyph unicode="&#xf7;" horiz-adv-x="1261" d="M180 578v98h901v-98h-901zM551 285q0 32 23 54.5t55 22.5q34 0 57 -22.5t23 -54.5q0 -34 -23 -57t-57 -23q-32 0 -55 23t-23 57zM551 971q0 32 23 55t55 23q34 0 57 -23t23 -55q0 -34 -23 -57t-57 -23q-32 0 -55 23t-23 57z" />
<glyph unicode="&#xf8;" horiz-adv-x="1204" d="M84 33l129 129q-119 142 -119 321q0 135 67.5 252t184.5 186.5t256 69.5q181 0 324 -117l129 130l65 -64l-131 -131q119 -142 119 -326q0 -136 -68.5 -252t-185 -183.5t-252.5 -67.5q-181 0 -326 116l-126 -127zM195 483q0 -137 88 -252l573 574q-110 92 -254 92 q-113 0 -207.5 -59t-147 -154t-52.5 -201zM348 168q110 -92 254 -92q169 0 288.5 121.5t119.5 285.5q0 142 -90 256z" />
<glyph unicode="&#xf9;" horiz-adv-x="1167" d="M145 387v586h101v-553q0 -164 84.5 -255t228.5 -91q148 0 248 95t100 280v524h103v-973h-103v213q-38 -107 -133.5 -170t-230.5 -63q-178 0 -288 108.5t-110 298.5zM367 1329l49 88l418 -256l-43 -80z" />
<glyph unicode="&#xfa;" horiz-adv-x="1167" d="M145 387v586h101v-553q0 -164 84.5 -255t228.5 -91q148 0 248 95t100 280v524h103v-973h-103v213q-38 -107 -133.5 -170t-230.5 -63q-178 0 -288 108.5t-110 298.5zM367 1163l419 256l48 -88l-422 -248z" />
<glyph unicode="&#xfb;" horiz-adv-x="1167" d="M145 387v586h101v-553q0 -164 84.5 -255t228.5 -91q148 0 248 95t100 280v524h103v-973h-103v213q-38 -107 -133.5 -170t-230.5 -63q-178 0 -288 108.5t-110 298.5zM256 1157l317 262h56l315 -262l-53 -74l-291 234l-291 -234z" />
<glyph unicode="&#xfc;" horiz-adv-x="1167" d="M145 387v586h101v-553q0 -164 84.5 -255t228.5 -91q148 0 248 95t100 280v524h103v-973h-103v213q-38 -107 -133.5 -170t-230.5 -63q-178 0 -288 108.5t-110 298.5zM340 1192v135h133v-135h-133zM727 1192v135h133v-135h-133z" />
<glyph unicode="&#xfd;" horiz-adv-x="1028" d="M29 973h112l379 -860l365 860h112l-624 -1422h-105l197 441zM281 1163l417 256l50 -88l-424 -248z" />
<glyph unicode="&#xfe;" d="M160 -449v1831h100v-639q55 117 165 182.5t243 65.5q134 0 247.5 -67t179.5 -183.5t66 -255.5q0 -211 -145 -358t-350 -147q-135 0 -241.5 65t-164.5 178v-672h-100zM260 485q0 -177 116 -293t288 -116q166 0 281.5 118.5t115.5 290.5t-115.5 292t-281.5 120 q-171 0 -287.5 -118t-116.5 -294z" />
<glyph unicode="&#xff;" horiz-adv-x="1028" d="M29 973h112l379 -860l365 860h112l-624 -1422h-105l197 441zM252 1192v135h133v-135h-133zM639 1192v135h133v-135h-133z" />
<glyph unicode="&#x152;" horiz-adv-x="2164" d="M90 664q0 193 88 350.5t241 246.5t339 89q178 0 326 -82.5t237 -225.5v287h756v-98h-652v-498h590v-98h-590v-537h654v-98h-758v287q-89 -143 -237 -225t-326 -82q-185 0 -337.5 87.5t-241.5 244.5t-89 352zM199 664q0 -164 72 -297.5t200.5 -210t286.5 -76.5t287 77 t201.5 210.5t72.5 296.5t-72 297t-201 211t-288 77t-287.5 -77.5t-200 -211.5t-71.5 -296z" />
<glyph unicode="&#x153;" horiz-adv-x="2048" d="M82 483q0 135 67.5 252t184.5 186.5t256 69.5q148 0 269.5 -78.5t184.5 -207.5q59 129 178 207.5t265 78.5q133 0 246 -67t178 -180t65 -244q0 -7 -4 -43h-876q9 -167 123.5 -276t283.5 -109q106 0 195 42.5t143 118.5l72 -53q-65 -94 -173 -147t-237 -53 q-150 0 -272.5 78.5t-183.5 207.5q-63 -128 -186.5 -207t-270.5 -79q-137 0 -254 67.5t-185.5 183.5t-68.5 252zM182 483q0 -164 119.5 -285.5t288.5 -121.5q111 0 204.5 56.5t147 150.5t53.5 200t-52 201t-146 154t-207 59t-208 -59t-147.5 -154t-52.5 -201zM1100 539h774 q-12 159 -121.5 259.5t-265.5 100.5q-151 0 -261.5 -102t-125.5 -258z" />
<glyph unicode="&#x178;" horiz-adv-x="1234" d="M39 1329h121l458 -676l459 676h117l-524 -770v-559h-105v559zM344 1546v154h152v-154h-152zM735 1546v154h152v-154h-152z" />
<glyph unicode="&#x2c6;" horiz-adv-x="1228" d="M123 1157l315 262h58l315 -262l-53 -74l-291 234l-291 -234z" />
<glyph unicode="&#x2dc;" horiz-adv-x="1228" d="M123 1180q0 90 52.5 144t139.5 54q44 0 87 -18t72 -40t66 -40t70 -18q117 0 117 108h82q0 -91 -52.5 -145t-138.5 -54q-45 0 -88 18.5t-71.5 40t-65 40t-69.5 18.5q-59 0 -89 -28t-30 -80h-82z" />
<glyph unicode="&#x2000;" horiz-adv-x="932" />
<glyph unicode="&#x2001;" horiz-adv-x="1864" />
<glyph unicode="&#x2002;" horiz-adv-x="932" />
<glyph unicode="&#x2003;" horiz-adv-x="1864" />
<glyph unicode="&#x2004;" horiz-adv-x="621" />
<glyph unicode="&#x2005;" horiz-adv-x="466" />
<glyph unicode="&#x2006;" horiz-adv-x="310" />
<glyph unicode="&#x2007;" horiz-adv-x="310" />
<glyph unicode="&#x2008;" horiz-adv-x="233" />
<glyph unicode="&#x2009;" horiz-adv-x="372" />
<glyph unicode="&#x200a;" horiz-adv-x="103" />
<glyph unicode="&#x2010;" horiz-adv-x="823" d="M125 489v99h571v-99h-571z" />
<glyph unicode="&#x2011;" horiz-adv-x="823" d="M125 489v99h571v-99h-571z" />
<glyph unicode="&#x2012;" horiz-adv-x="823" d="M125 489v99h571v-99h-571z" />
<glyph unicode="&#x2013;" horiz-adv-x="1095" d="M125 489v99h844v-99h-844z" />
<glyph unicode="&#x2014;" horiz-adv-x="1480" d="M125 489v99h1229v-99h-1229z" />
<glyph unicode="&#x2018;" horiz-adv-x="362" d="M98 1053l101 303h77l-61 -303h-117z" />
<glyph unicode="&#x2019;" horiz-adv-x="352" d="M104 1047l64 303h117l-101 -303h-80z" />
<glyph unicode="&#x201a;" horiz-adv-x="364" d="M76 -166l63 303h117l-100 -303h-80z" />
<glyph unicode="&#x201c;" horiz-adv-x="616" d="M98 1047l103 303h78l-64 -303h-117zM352 1047l101 303h77l-61 -303h-117z" />
<glyph unicode="&#x201d;" horiz-adv-x="604" d="M104 1047l64 303h117l-101 -303h-80zM358 1047l62 303h117l-101 -303h-78z" />
<glyph unicode="&#x201e;" horiz-adv-x="616" d="M76 -166l63 303h117l-100 -303h-80zM330 -166l61 303h117l-100 -303h-78z" />
<glyph unicode="&#x2022;" horiz-adv-x="698" d="M172 467v360h352v-360h-352z" />
<glyph unicode="&#x2026;" horiz-adv-x="1132" d="M127 0v139h137v-139h-137zM498 0v139h137v-139h-137zM868 0v139h138v-139h-138z" />
<glyph unicode="&#x202f;" horiz-adv-x="372" />
<glyph unicode="&#x2039;" horiz-adv-x="579" d="M80 477l274 336h107l-268 -336l270 -338h-111z" />
<glyph unicode="&#x203a;" horiz-adv-x="579" d="M117 139l270 338l-268 336h108l273 -336l-273 -338h-110z" />
<glyph unicode="&#x205f;" horiz-adv-x="466" />
<glyph unicode="&#x20ac;" horiz-adv-x="1247" d="M57 489l31 86h168q-4 58 -4 89q0 36 4 102h-172l29 86h157q45 229 197 363.5t381 134.5q185 0 328 -86l-46 -86q-128 71 -282 71q-188 0 -309 -106.5t-162 -290.5h624l-28 -86h-611q-6 -50 -6 -102q0 -31 4 -89h574l-31 -86h-530q40 -189 162 -300t313 -111q153 0 282 72 l46 -87q-148 -86 -328 -86q-232 0 -385 138.5t-197 373.5h-209z" />
<glyph unicode="&#x2122;" horiz-adv-x="1454" d="M61 1249v80h525v-80h-217v-526h-88v526h-220zM690 723l2 606h127l178 -512l177 512h126v-606h-83v483h-7l-168 -483h-92l-168 483h-8v-483h-84z" />
<glyph unicode="&#x25fc;" horiz-adv-x="972" d="M0 0v973h973v-973h-973z" />
</font>
</defs>
</svg>
