<?xml version="1.0" standalone="no"?>
<!DOCTYPE svg PUBLIC "-//W3C//DTD SVG 1.1//EN" "http://www.w3.org/Graphics/SVG/1.1/DTD/svg11.dtd" >
<svg xmlns="http://www.w3.org/2000/svg" xmlns:xlink="http://www.w3.org/1999/xlink" version="1.1">
<metadata></metadata>
<defs>
<font id="f37_moonlight_it" horiz-adv-x="1243" >
<font-face units-per-em="2048" ascent="1638" descent="-410" />
<missing-glyph horiz-adv-x="487" />
<glyph unicode="&#xfb01;" horiz-adv-x="1026" d="M203 0l153 874h-143l16 99h146l4 31q14 95 45 167t71 115.5t93.5 70.5t106.5 36.5t116 9.5q24 0 47 -2l-16 -98q-23 2 -47 2q-130 0 -209.5 -68t-104.5 -233l-4 -31h561l-172 -973h-102l156 874h-461l-154 -874h-102zM961 1192l22 135h131l-22 -135h-131z" />
<glyph unicode="&#xfb02;" horiz-adv-x="1026" d="M203 0l153 874h-143l16 99h146l4 31q14 95 45 167t71 115.5t93.5 70.5t106.5 36.5t116 9.5q24 0 47 -2l-16 -98q-23 2 -47 2q-130 0 -209.5 -68t-104.5 -233l-4 -31h459l72 409h102l-244 -1382h-102l154 874h-459l-154 -874h-102z" />
<glyph horiz-adv-x="0" />
<glyph horiz-adv-x="682" />
<glyph unicode=" "  horiz-adv-x="487" />
<glyph unicode="&#x09;" horiz-adv-x="487" />
<glyph unicode="&#xa0;" horiz-adv-x="487" />
<glyph unicode="!" horiz-adv-x="444" d="M156 0l24 135h131l-24 -135h-131zM258 358l61 488l84 483h105l-84 -483l-111 -488h-55z" />
<glyph unicode="&#x22;" horiz-adv-x="587" d="M313 1047l33 303h117l-72 -303h-78zM565 1047l35 303h117l-74 -303h-78z" />
<glyph unicode="#" horiz-adv-x="1118" d="M150 436l16 92h242l114 287h-227l16 92h246l115 289h86l-113 -289h254l115 289h86l-115 -289h219l-16 -92h-238l-114 -287h223l-17 -92h-241l-115 -289h-86l115 289h-256l-113 -289h-88l115 289h-223zM496 528h254l114 287h-256z" />
<glyph unicode="$" horiz-adv-x="1048" d="M96 197l86 65q50 -78 132.5 -124.5t185.5 -57.5l102 579q-59 21 -97 37.5t-85 45t-74 59t-46 77.5t-19 103q0 160 121 260.5t321 108.5l37 213h92l-39 -215q242 -22 346 -189l-80 -67q-90 144 -282 159l-92 -522q61 -24 100 -42t88 -50t77 -66t48 -85t20 -113 q0 -181 -125.5 -285.5t-339.5 -107.5l-36 -211h-93l37 215q-130 12 -230 67t-155 146zM387 987q0 -35 12.5 -64.5t32 -51t52 -42.5t62 -35t72.5 -32l87 489q-146 -10 -232 -82t-86 -182zM590 76q162 6 252 83.5t90 205.5q0 53 -18.5 95t-55.5 73t-75.5 51.5t-94.5 42.5z" />
<glyph unicode="%" horiz-adv-x="1531" d="M227 909q0 177 108 303.5t261 126.5q118 0 188 -79t70 -207q0 -175 -107.5 -300.5t-261.5 -125.5q-116 0 -187 78.5t-71 203.5zM315 918q0 -93 49 -151t130 -58q109 0 190.5 100.5t81.5 237.5q0 95 -48 151.5t-130 56.5q-109 0 -191 -100.5t-82 -236.5zM389 0l891 1329 h94l-891 -1329h-94zM907 276q0 116 49 215.5t134.5 157.5t187.5 58q117 0 186.5 -80t69.5 -209q0 -113 -48 -211t-133.5 -156.5t-187.5 -58.5q-116 0 -187 79t-71 205zM997 285q0 -94 49 -151.5t128 -57.5q109 0 190.5 100.5t81.5 237.5q0 96 -47.5 152.5t-130.5 56.5 q-109 0 -190 -101.5t-81 -236.5z" />
<glyph unicode="&#x26;" horiz-adv-x="1210" d="M158 319q0 141 79.5 244.5t221.5 147.5q-70 35 -111 97.5t-41 147.5q0 177 131.5 285.5t345.5 108.5q74 0 154 -9l-18 -100q-85 10 -144 10q-160 0 -261 -81.5t-101 -211.5q0 -90 55 -144t166 -54h346l49 278h100l-49 -278h193l-19 -98h-190l-100 -564h192l-16 -98h-572 q-198 0 -304.5 85t-106.5 234zM268 336q0 -112 80.5 -175t237.5 -63h278l101 564h-353q-147 0 -245.5 -94.5t-98.5 -231.5z" />
<glyph unicode="'" horiz-adv-x="333" d="M313 1047l33 303h117l-72 -303h-78z" />
<glyph unicode="(" horiz-adv-x="577" d="M168 354q0 312 151 575t420 427l45 -80q-105 -69 -194.5 -163t-161 -209t-112 -256t-40.5 -288q0 -191 65.5 -341.5t174.5 -251.5l-65 -76q-283 259 -283 663z" />
<glyph unicode=")" horiz-adv-x="579" d="M-20 -229q105 69 194 162.5t160 208.5t111 255.5t40 288.5q0 191 -65.5 342.5t-173.5 251.5l65 76q283 -259 283 -666q0 -311 -151.5 -574t-419.5 -425z" />
<glyph unicode="*" horiz-adv-x="710" d="M266 956l217 103l-176 102l47 66l162 -117l29 219h82l-47 -221l204 119l31 -72l-211 -100l174 -103l-49 -65l-168 121l-31 -226h-79l47 215l-201 -114z" />
<glyph unicode="+" horiz-adv-x="1261" d="M281 578l18 98h401l72 401h98l-71 -401h401l-18 -98h-400l-71 -402h-99l72 402h-403z" />
<glyph unicode="," horiz-adv-x="360" d="M55 -186l101 323h123l-142 -323h-82z" />
<glyph unicode="-" horiz-adv-x="823" d="M213 489l16 99h572l-19 -99h-569z" />
<glyph unicode="." horiz-adv-x="391" d="M127 0l25 139h137l-25 -139h-137z" />
<glyph unicode="/" horiz-adv-x="673" d="M70 0l661 1329h107l-662 -1329h-106z" />
<glyph unicode="0" horiz-adv-x="1159" d="M207 440l80 453q36 207 175.5 332t348.5 125q200 0 305.5 -131.5t71.5 -325.5l-80 -455q-37 -215 -172.5 -336.5t-345.5 -121.5q-204 0 -310.5 131t-72.5 329zM313 442q-29 -164 48 -261t237 -97q162 0 269 96.5t137 261.5l77 445q28 160 -45.5 259t-234.5 99 q-163 0 -272.5 -98t-137.5 -260z" />
<glyph unicode="1" horiz-adv-x="548" d="M254 0l217 1227h-197l19 102h305l-233 -1329h-111z" />
<glyph unicode="2" horiz-adv-x="1003" d="M84 0l16 86l609 565q41 39 51.5 49t46.5 47t48.5 54t38 52.5t35 61.5t18.5 61.5t9 70.5q0 92 -62.5 147t-178.5 55q-135 0 -223.5 -78t-118.5 -243h-107q37 214 157 318t302 104q154 0 246 -82t92 -209q0 -58 -20 -117.5t-45 -103t-73.5 -99.5t-78 -85t-84.5 -81 l-510 -471h686l-18 -102h-836z" />
<glyph unicode="3" horiz-adv-x="1013" d="M115 287l92 49q56 -260 323 -260q157 0 254 93.5t97 242.5q0 117 -78.5 182t-218.5 65h-56l-22 78l471 494h-645l18 98h774l-16 -90l-473 -494q158 -8 254 -96.5t96 -232.5q0 -192 -130 -314t-335 -122q-161 0 -268.5 81t-136.5 226z" />
<glyph unicode="4" horiz-adv-x="1077" d="M106 332l15 82l577 915h115l-567 -897h545l69 395h107l-68 -395h207l-19 -100h-206l-60 -332h-106l59 332h-668z" />
<glyph unicode="5" horiz-adv-x="1003" d="M121 287l92 51q50 -260 322 -260q161 0 257.5 97t96.5 251q0 124 -79.5 194t-219.5 70h-316l160 639h645l-18 -100h-551l-111 -441h211q172 0 278.5 -96t106.5 -256q0 -199 -128 -327.5t-341 -128.5q-166 0 -271.5 80.5t-133.5 226.5z" />
<glyph unicode="6" horiz-adv-x="1050" d="M158 346q0 177 131 342l504 641h120l-436 -551q96 51 201 51q169 0 277 -106.5t108 -261.5q0 -203 -145 -342t-363 -139q-173 0 -285 104.5t-112 261.5zM262 360q0 -124 83.5 -203t221.5 -79q163 0 277 109t114 266q0 123 -83 204.5t-218 81.5q-164 0 -279.5 -108 t-115.5 -271z" />
<glyph unicode="7" horiz-adv-x="942" d="M176 0l821 1227h-741l16 102h858l-14 -94l-819 -1235h-121z" />
<glyph unicode="8" horiz-adv-x="1099" d="M160 319q0 152 89 258.5t243 153.5q-62 30 -103 93t-41 139q0 169 121 278t311 109q142 0 235 -80.5t93 -208.5q0 -113 -65 -201.5t-181 -132.5q207 -89 207 -305q0 -193 -138.5 -317.5t-363.5 -124.5q-173 0 -290 94t-117 245zM264 336q0 -117 88.5 -187.5t222.5 -70.5 q172 0 282 93.5t110 244.5q0 118 -83 191t-218 73q-174 0 -288 -97.5t-114 -246.5zM453 971q0 -92 66 -147.5t169 -55.5q134 0 225 79t91 197q0 96 -66.5 153.5t-169.5 57.5q-133 0 -224 -81t-91 -203z" />
<glyph unicode="9" horiz-adv-x="1044" d="M215 868q0 133 65.5 243t182 174.5t260.5 64.5q172 0 283.5 -105t111.5 -262q0 -177 -131 -342l-502 -641h-120l434 551q-92 -51 -201 -51q-168 0 -275.5 106.5t-107.5 261.5zM319 877q0 -123 83.5 -205t218.5 -82q163 0 278 108t115 271q0 124 -83 203t-220 79 q-163 0 -277.5 -109t-114.5 -265z" />
<glyph unicode=":" horiz-adv-x="393" d="M127 0l25 139h137l-25 -139h-137zM262 758l25 139h137l-25 -139h-137z" />
<glyph unicode=";" horiz-adv-x="444" d="M96 -186l101 323h122l-143 -323h-80zM297 758l25 139h137l-25 -139h-137z" />
<glyph unicode="&#x3c;" horiz-adv-x="1263" d="M442 647l609 520l63 -73l-532 -451l366 -446l-80 -70z" />
<glyph unicode="=" horiz-adv-x="1261" d="M248 383l18 98h901l-18 -98h-901zM319 793l19 98h901l-18 -98h-902z" />
<glyph unicode="&#x3e;" horiz-adv-x="1265" d="M381 203l532 450l-366 447l80 67l426 -520l-609 -520z" />
<glyph unicode="?" horiz-adv-x="915" d="M225 930q37 209 160 314.5t293 105.5q155 0 245.5 -79.5t90.5 -205.5q0 -69 -22 -129.5t-57.5 -105t-79 -84t-89 -74.5t-84 -68.5t-67.5 -74t-37 -83.5l-17 -88h-102l16 95q8 50 36.5 96t67 82.5t83 72t87.5 72.5t78 76.5t56.5 91.5t21.5 111q0 90 -60.5 143t-174.5 53 q-128 0 -220 -81t-120 -240h-105zM381 0l25 135h131l-25 -135h-131z" />
<glyph unicode="@" horiz-adv-x="1863" d="M143 248q0 206 68.5 382.5t192 303t303 198.5t393.5 72q216 0 386.5 -85.5t266.5 -240t96 -352.5q0 -173 -54.5 -312t-150 -216.5t-214.5 -77.5q-95 0 -147 53.5t-46 147.5q-61 -76 -144.5 -121t-177.5 -45q-157 0 -259.5 105t-102.5 255q0 95 36 179t96.5 143t142 93 t169.5 34q111 0 193.5 -56.5t120.5 -150.5l35 193h96l-101 -570q-27 -168 107 -168q127 0 214 145t87 363q0 263 -181.5 426.5t-477.5 163.5q-249 0 -442.5 -109t-298.5 -303t-105 -442q0 -174 79.5 -315.5t221.5 -222t319 -80.5q216 0 350 67l31 -88q-152 -74 -387 -74 q-153 0 -286.5 54.5t-227.5 148.5t-147.5 224.5t-53.5 277.5zM649 319q0 -114 79.5 -194t209.5 -80q131 0 231.5 102t100.5 252q0 113 -76 194t-201 81q-139 0 -241.5 -102t-102.5 -253z" />
<glyph unicode="A" d="M31 0l757 1329h132l290 -1329h-100l-88 383h-660l-215 -383h-116zM420 481h579l-155 744z" />
<glyph unicode="B" horiz-adv-x="1198" d="M178 0l234 1329h452q164 0 261.5 -85t97.5 -220q0 -104 -58 -194.5t-157 -141.5q157 -88 157 -262q0 -190 -133 -308t-354 -118h-500zM301 98h395q161 0 261 89t100 235q0 90 -57.5 151.5t-145.5 61.5h-459zM412 731h448q97 0 174.5 87.5t77.5 197.5q0 94 -66.5 154.5 t-181.5 60.5h-364z" />
<glyph unicode="C" horiz-adv-x="1386" d="M203 565q0 165 57 310.5t155.5 249.5t238.5 164.5t300 60.5q177 0 316 -84.5t209 -229.5l-97 -53q-55 123 -170 194.5t-268 71.5q-180 0 -325.5 -88.5t-226.5 -242.5t-81 -343q0 -218 129 -356.5t348 -138.5q153 0 285.5 67t222.5 187l82 -62q-103 -139 -259 -215.5 t-341 -76.5q-255 0 -415 164.5t-160 420.5z" />
<glyph unicode="D" horiz-adv-x="1368" d="M178 0l234 1329h395q169 0 304 -72.5t210.5 -201.5t75.5 -291q0 -215 -101 -390t-277 -274.5t-390 -99.5h-451zM301 100h338q135 0 255.5 50.5t206 137t135.5 208t50 258.5q0 207 -134.5 341t-354.5 134h-297z" />
<glyph unicode="E" horiz-adv-x="1024" d="M178 0l234 1329h755l-14 -98h-653l-88 -498h592l-19 -98h-590l-94 -537h653l-18 -98h-758z" />
<glyph unicode="F" horiz-adv-x="980" d="M178 0l234 1329h753l-16 -98h-647l-92 -520h587l-18 -101h-588l-106 -610h-107z" />
<glyph unicode="G" horiz-adv-x="1456" d="M203 565q0 220 98.5 400t271 282.5t383.5 102.5q150 0 274 -62.5t204 -171.5l-84 -72q-63 96 -168 150.5t-236 54.5q-177 0 -323 -88.5t-229 -243t-83 -342.5q0 -215 137 -355t353 -140q233 0 383 133.5t192 366.5h-473l17 94h577q-20 -315 -210 -504.5t-496 -189.5 q-166 0 -300.5 75t-211 209t-76.5 301z" />
<glyph unicode="H" horiz-adv-x="1329" d="M178 0l234 1329h106l-104 -596h762l102 596h106l-233 -1329h-107l113 633h-762l-110 -633h-107z" />
<glyph unicode="I" horiz-adv-x="462" d="M178 0l234 1329h106l-233 -1329h-107z" />
<glyph unicode="J" horiz-adv-x="905" d="M55 129l78 80q53 -67 114 -98t144 -31q129 0 203.5 71t103.5 228l168 950h105l-168 -956q-37 -207 -140 -300t-278 -93q-102 0 -187.5 40t-142.5 109z" />
<glyph unicode="K" horiz-adv-x="1161" d="M178 0l234 1329h104l-137 -784l838 784h137l-645 -602l458 -727h-118l-418 653l-279 -260l-69 -393h-105z" />
<glyph unicode="L" horiz-adv-x="952" d="M178 0l234 1329h110l-215 -1227h631l-16 -102h-744z" />
<glyph unicode="M" horiz-adv-x="1718" d="M178 0l234 1329h153l307 -1233l736 1233h164l-234 -1329h-104l213 1200l-725 -1200h-123l-305 1194l-209 -1194h-107z" />
<glyph unicode="N" horiz-adv-x="1462" d="M178 0l234 1329h116l678 -1171l205 1171h105l-234 -1329h-104l-686 1186l-209 -1186h-105z" />
<glyph unicode="O" horiz-adv-x="1519" d="M197 565q0 220 101 400t277 282.5t390 102.5q258 0 424.5 -165.5t166.5 -420.5q0 -221 -101.5 -401t-277.5 -281.5t-389 -101.5q-169 0 -304 75t-211 208.5t-76 301.5zM307 575q0 -216 136 -355.5t356 -139.5q135 0 255 52t206 141t136 214.5t50 266.5q0 215 -135.5 355 t-356.5 140q-181 0 -329.5 -88.5t-233 -243t-84.5 -342.5z" />
<glyph unicode="P" horiz-adv-x="1095" d="M178 0l234 1329h403q177 0 285 -100.5t108 -249.5q0 -215 -148.5 -347t-383.5 -132h-303l-88 -500h-107zM391 600h299q183 0 296.5 101t113.5 268q0 117 -79 189.5t-222 72.5h-299z" />
<glyph unicode="Q" horiz-adv-x="1515" d="M197 565q0 220 101 400t277 282.5t390 102.5q258 0 424.5 -165.5t166.5 -420.5q0 -186 -73 -344t-203 -266l115 -148l-82 -65l-119 151q-182 -112 -406 -112q-169 0 -304 75t-211 208.5t-76 301.5zM307 575q0 -216 136 -355.5t356 -139.5q184 0 334 92l-244 311l84 66 l246 -316q107 94 167 229t60 292q0 215 -135.5 355t-356.5 140q-181 0 -329.5 -88.5t-233 -243t-84.5 -342.5z" />
<glyph unicode="R" horiz-adv-x="1134" d="M178 0l234 1329h385q189 0 296 -94t107 -246q0 -172 -105 -284.5t-286 -145.5l244 -559h-119l-240 549h-18h-299l-96 -549h-103zM393 639h293q185 0 297.5 93.5t112.5 248.5q0 118 -81.5 185t-232.5 67h-284z" />
<glyph unicode="S" horiz-adv-x="1069" d="M98 197l88 67q58 -89 159.5 -136.5t227.5 -47.5q172 0 267.5 76.5t95.5 208.5q0 72 -36 125t-93.5 84.5t-126.5 57.5t-138.5 53.5t-127 62.5t-93.5 94t-36 139q0 166 131.5 267.5t345.5 101.5q137 0 242.5 -49.5t162.5 -141.5l-82 -69q-99 159 -325 159 q-166 0 -265.5 -71.5t-99.5 -190.5q0 -53 28 -94.5t74 -67.5t104.5 -52t119.5 -47t119.5 -52.5t104.5 -69t74 -97t28 -134.5q0 -183 -129 -288t-349 -105q-161 0 -285 56t-186 161z" />
<glyph unicode="T" horiz-adv-x="1071" d="M246 1229l18 100h1012l-19 -100h-452l-217 -1229h-105l215 1229h-452z" />
<glyph unicode="U" horiz-adv-x="1409" d="M260 555l135 774h107l-135 -770q-12 -74 -13 -136q0 -43 7 -81q15 -90 66 -148.5t125.5 -86t174.5 -27.5q429 0 512 479l135 770h105l-136 -774q-50 -295 -208 -435t-418 -140q-255 0 -381 149q-90 106 -91 277q0 69 15 149z" />
<glyph unicode="V" horiz-adv-x="1228" d="M266 1329h107l256 -1225l686 1225h112l-747 -1329h-131z" />
<glyph unicode="W" horiz-adv-x="1937" d="M266 1329h107l174 -1216l592 1216h123l165 -1216l598 1216h111l-661 -1329h-132l-163 1196l-588 -1196h-129z" />
<glyph unicode="X" horiz-adv-x="1136" d="M14 0l613 680l-361 649h117l315 -575l514 575h125l-589 -653l374 -676h-116l-328 594l-537 -594h-127z" />
<glyph unicode="Y" horiz-adv-x="1234" d="M272 1329h115l340 -676l578 676h122l-659 -770l-98 -559h-105l99 559z" />
<glyph unicode="Z" horiz-adv-x="1038" d="M57 0l13 68l977 1163h-773l19 98h921l-12 -67l-977 -1164h772l-16 -98h-924z" />
<glyph unicode="[" horiz-adv-x="620" d="M125 -297l287 1626h409l-16 -90h-305l-256 -1446h307l-16 -90h-410z" />
<glyph unicode="\" horiz-adv-x="667" d="M303 1329h96l195 -1329h-94z" />
<glyph unicode="]" horiz-adv-x="620" d="M-18 -297l16 90h307l254 1446h-305l14 90h412l-289 -1626h-409z" />
<glyph unicode="^" horiz-adv-x="1261" d="M303 606l504 723h115l249 -723h-98l-219 635l-440 -635h-111z" />
<glyph unicode="_" horiz-adv-x="958" d="M49 -156l19 99h802l-18 -99h-803z" />
<glyph unicode="`" horiz-adv-x="1228" d="M356 1329l60 84l372 -256l-51 -76z" />
<glyph unicode="a" d="M160 430q0 156 76.5 285.5t204 202.5t274.5 73q141 0 244.5 -72.5t150.5 -193.5l43 248h102l-172 -973h-102l33 188q-74 -96 -179.5 -152t-222.5 -56q-195 0 -323.5 131.5t-128.5 318.5zM260 434q0 -148 104 -253t273 -105q110 0 208.5 59.5t160 166.5t61.5 235 q0 149 -98.5 254.5t-259.5 105.5q-118 0 -221 -60t-165.5 -167t-62.5 -236z" />
<glyph unicode="b" d="M160 0l243 1382h103l-107 -600q76 97 181 153t223 56q195 0 323.5 -131.5t128.5 -318.5q0 -156 -76.5 -285.5t-204 -202.5t-274.5 -73q-141 0 -244.5 73t-150.5 195l-43 -248h-102zM348 434q0 -148 98.5 -253t260.5 -105q88 0 170 35.5t143.5 96t98 146.5t36.5 183 q0 148 -104 254t-273 106q-110 0 -208.5 -60t-160 -167.5t-61.5 -235.5z" />
<glyph unicode="c" horiz-adv-x="1064" d="M160 430q0 156 75.5 285.5t203 202.5t276.5 73q134 0 240 -62.5t163 -168.5l-86 -47q-46 86 -130.5 135t-201.5 49q-86 0 -166 -35.5t-140.5 -96.5t-97 -147.5t-36.5 -183.5q0 -149 100.5 -253.5t268.5 -104.5q100 0 194 47t154 127l78 -55q-77 -100 -193.5 -157.5 t-245.5 -57.5q-199 0 -327.5 131t-128.5 319z" />
<glyph unicode="d" d="M160 430q0 156 76.5 285.5t204 202.5t274.5 73q141 0 244 -72.5t149 -193.5l117 657h102l-244 -1382h-102l33 188q-74 -96 -179.5 -152t-222.5 -56q-195 0 -323.5 131.5t-128.5 318.5zM260 434q0 -148 104 -253t273 -105q110 0 208.5 59.5t160 166.5t61.5 235 q0 149 -98.5 254.5t-259.5 105.5q-118 0 -221 -60t-165.5 -167t-62.5 -236z" />
<glyph unicode="e" horiz-adv-x="1134" d="M160 430q0 155 76.5 285t201.5 203t269 73q197 0 323.5 -127t126.5 -313q0 -55 -10 -94h-885v-23q0 -150 100 -255t265 -105q97 0 185 41.5t155 117.5l69 -59q-169 -194 -426 -194q-127 0 -231 61t-161.5 164t-57.5 225zM272 539h785q0 152 -97.5 255t-267.5 103 q-144 0 -264.5 -101t-155.5 -257z" />
<glyph unicode="f" horiz-adv-x="634" d="M203 0l153 874h-143l16 99h146l4 31q14 95 45 167t71 115.5t93.5 70.5t106.5 36.5t116 9.5q24 0 47 -2l-16 -98q-23 2 -47 2q-130 0 -209.5 -68t-104.5 -233l-4 -31h305l-16 -99h-307l-154 -874h-102z" />
<glyph unicode="g" d="M88 -360l57 88q156 -103 351 -103q420 0 503 461l19 102q-74 -96 -179.5 -152t-224.5 -56q-196 0 -324 131t-128 319q0 156 76.5 285.5t204 202.5t274.5 73q141 0 244.5 -72.5t150.5 -193.5l43 248h102l-155 -883q-51 -285 -201.5 -422t-415.5 -137q-110 0 -214.5 29 t-182.5 80zM262 434q0 -149 103 -253.5t274 -104.5q111 0 209 59.5t158.5 166.5t60.5 235q0 149 -97.5 254.5t-258.5 105.5q-118 0 -221 -60t-165.5 -167t-62.5 -236z" />
<glyph unicode="h" horiz-adv-x="1171" d="M160 0l243 1382h101l-109 -616q58 105 161 165t232 60q184 0 278 -112q68 -81 68 -211q0 -50 -10 -107l-98 -561h-102l94 545q9 50 9 94q1 102 -47 166q-68 92 -212 92q-66 0 -129 -20.5t-119.5 -60.5t-99.5 -108.5t-62 -156.5l-96 -551h-102z" />
<glyph unicode="i" horiz-adv-x="421" d="M160 0l172 973h102l-172 -973h-102zM356 1192l23 135h131l-23 -135h-131z" />
<glyph unicode="j" horiz-adv-x="421" d="M-172 -467l18 98q18 -2 43 -2q99 0 161 49.5t85 180.5l197 1114h102l-196 -1114q-32 -181 -121 -254.5t-234 -73.5q-32 0 -55 2zM354 1192l23 135h131l-23 -135h-131z" />
<glyph unicode="k" horiz-adv-x="931" d="M160 0l243 1382h103l-162 -915l584 506h137l-473 -414l338 -559h-115l-303 492l-193 -168l-57 -324h-102z" />
<glyph unicode="l" horiz-adv-x="421" d="M160 0l243 1382h103l-244 -1382h-102z" />
<glyph unicode="m" horiz-adv-x="1818" d="M160 0l172 973h100l-35 -191q136 209 367 209q128 0 208.5 -65t100.5 -183q135 248 397 248q175 -1 258 -117q58 -82 58 -204q0 -52 -10 -111l-99 -559h-102l96 545q10 58 10 107q0 96 -39 156q-59 90 -196 89q-86 0 -161 -36.5t-134 -117t-84 -196.5l-96 -547h-103 l95 545q10 58 10 106q1 96 -39 156q-60 90 -197 90q-130 0 -234.5 -87t-142.5 -253l-98 -557h-102z" />
<glyph unicode="n" horiz-adv-x="1171" d="M160 0l172 973h100l-37 -207q59 106 161.5 165.5t231.5 59.5q184 0 278 -112q68 -81 68 -211q0 -50 -10 -107l-98 -561h-102l94 545q9 50 9 94q1 102 -47 166q-68 92 -212 92q-66 0 -129 -20.5t-119.5 -60.5t-99.5 -108.5t-62 -156.5l-96 -551h-102z" />
<glyph unicode="o" horiz-adv-x="1177" d="M162 430q0 155 78 285t207 203t276 73q133 0 240 -61t166 -164t59 -225q0 -156 -78 -285.5t-207.5 -202.5t-277.5 -73q-198 0 -330.5 131.5t-132.5 318.5zM262 434q0 -148 104 -253t273 -105q116 0 218.5 59.5t166 166.5t63.5 235q0 96 -44 177.5t-131 132t-201 50.5 q-116 0 -219 -60t-166.5 -167.5t-63.5 -235.5z" />
<glyph unicode="p" d="M80 -449l252 1422h102l-35 -191q76 97 181 153t223 56q195 0 323.5 -131.5t128.5 -318.5q0 -156 -76.5 -285.5t-204 -202.5t-274.5 -73q-141 0 -245 73.5t-150 194.5l-123 -697h-102zM348 434q0 -148 98.5 -253t260.5 -105q88 0 170 35.5t143.5 96t98 146.5t36.5 183 q0 148 -104 254t-273 106q-110 0 -208.5 -60t-160 -167.5t-61.5 -235.5z" />
<glyph unicode="q" d="M160 430q0 156 76.5 285.5t204 202.5t274.5 73q141 0 244.5 -72.5t150.5 -193.5l43 248h102l-249 -1422h-103l113 639q-75 -98 -180 -154t-224 -56q-195 0 -323.5 131.5t-128.5 318.5zM260 434q0 -148 104 -253t273 -105q110 0 208.5 59.5t160 166.5t61.5 235 q0 149 -98.5 254.5t-259.5 105.5q-118 0 -221 -60t-165.5 -167t-62.5 -236z" />
<glyph unicode="r" horiz-adv-x="681" d="M160 0l172 973h102l-43 -240q111 258 443 258l-17 -108h-29q-99 0 -179 -36t-132.5 -97.5t-85 -134.5t-47.5 -156l-82 -459h-102z" />
<glyph unicode="s" horiz-adv-x="856" d="M98 193l95 49q35 -88 99.5 -130t168.5 -42q116 0 186 54.5t70 145.5q0 46 -27 80.5t-69.5 55.5t-94.5 40t-104 40t-94.5 48.5t-69.5 73.5t-27 107q0 119 98.5 197.5t256.5 78.5q107 0 192.5 -45.5t124.5 -130.5l-96 -49q-57 135 -223 135q-108 0 -177 -51t-69 -135 q0 -37 21 -65.5t54.5 -47t77 -37t89 -34t89 -38.5t77 -49.5t54.5 -69t21 -95.5q0 -137 -99.5 -218t-266.5 -81q-279 0 -357 213z" />
<glyph unicode="t" horiz-adv-x="593" d="M180 874l19 99h188l43 246h102l-43 -246h267l-19 -99h-266l-154 -874h-102l154 874h-189z" />
<glyph unicode="u" horiz-adv-x="1167" d="M215 412l98 561h103l-97 -545q-9 -51 -9 -95q0 -101 48 -165q68 -92 213 -92q92 0 174.5 37t149.5 123t88 210l-2 -22l96 549h103l-172 -973h-103l37 203q-59 -104 -162 -162.5t-231 -58.5q-184 0 -277 112q-67 80 -67 210q0 50 10 108z" />
<glyph unicode="v" horiz-adv-x="1019" d="M203 973h102l221 -860l523 860h112l-594 -973h-114z" />
<glyph unicode="w" horiz-adv-x="1630" d="M205 973h106l162 -852l455 852h108l156 -852l463 852h114l-538 -973h-111l-157 840l-451 -840h-115z" />
<glyph unicode="x" horiz-adv-x="903" d="M18 0l465 510l-260 463h115l215 -387l352 387h119l-424 -465l285 -508h-113l-242 428l-389 -428h-123z" />
<glyph unicode="y" horiz-adv-x="1028" d="M184 -449l275 441l-260 981h106l227 -860l517 860h120l-876 -1422h-109z" />
<glyph unicode="z" horiz-adv-x="899" d="M68 0l16 90l770 791h-631l17 92h764l-17 -94l-768 -787h631l-19 -92h-763z" />
<glyph unicode="{" horiz-adv-x="620" d="M135 467l17 98q94 6 148.5 62.5t74.5 169.5l57 323q18 108 70 158.5t162 50.5h153l-14 -90h-127q-64 0 -97.5 -35t-46.5 -104l-55 -316q-20 -115 -70 -176.5t-141 -91.5q153 -57 117 -266l-55 -316q-12 -67 6 -104t88 -37h125l-15 -90h-147q-101 0 -142.5 57.5 t-23.5 153.5l57 324q40 220 -141 229z" />
<glyph unicode="|" horiz-adv-x="456" d="M145 -166l265 1495h104l-264 -1495h-105z" />
<glyph unicode="}" horiz-adv-x="620" d="M-14 -297l16 90h125q120 0 143 141l56 316q22 115 71.5 176.5t141.5 89.5q-157 58 -117 268l55 316q5 38 3.5 69t-26 50.5t-73.5 19.5h-125l16 90h146q100 0 142 -57t26 -152l-60 -323q-20 -113 15 -170.5t129 -61.5l-19 -98q-93 -6 -147 -61.5t-74 -167.5l-59 -324 q-18 -108 -70 -159.5t-160 -51.5h-155z" />
<glyph unicode="~" horiz-adv-x="1261" d="M295 539q18 92 80 145t160 53q60 0 118.5 -17t98.5 -37t94.5 -37t107.5 -17q62 0 99 28t45 80h96q-15 -91 -77 -144.5t-159 -53.5q-62 0 -123 17t-101.5 37t-93 37t-101.5 17q-62 0 -100.5 -28.5t-47.5 -79.5h-96z" />
<glyph unicode="&#xa1;" horiz-adv-x="405" d="M88 -356l86 483l109 487h57l-64 -487l-83 -483h-105zM285 838l22 135h131l-22 -135h-131z" />
<glyph unicode="&#xa2;" horiz-adv-x="1028" d="M201 614q0 213 144.5 360.5t350.5 155.5l35 199h94l-34 -205q101 -15 179 -69.5t120 -136.5l-86 -48q-88 166 -302 166q-164 0 -282.5 -120t-118.5 -298q0 -138 89.5 -230.5t246.5 -92.5q93 0 177 41.5t140 114.5l76 -54q-66 -89 -169 -141t-220 -57l-37 -199h-94l37 205 q-155 26 -250.5 140.5t-95.5 268.5z" />
<glyph unicode="&#xa3;" horiz-adv-x="1032" d="M94 0l17 92q121 97 167 145q131 139 134 312h-228l17 94h200q-7 29 -24.5 78.5t-28 96t-10.5 100.5q0 190 121 311t315 121q185 0 282 -100t62 -294h-106q27 144 -38 218.5t-198 74.5q-148 0 -239 -89t-91 -240q0 -65 30.5 -157.5t35.5 -119.5h424l-16 -94h-400 q-3 -81 -26.5 -149.5t-72.5 -127t-75 -83t-85 -71.5q-13 -11 -19 -16h710l-18 -102h-840z" />
<glyph unicode="&#xa4;" horiz-adv-x="1218" d="M203 291l166 141q-66 98 -66 213q0 188 131 326l-121 147l76 64l121 -148q125 86 274 86q162 0 273 -100l164 139l61 -72l-164 -139q64 -92 64 -209q0 -194 -142 -333l111 -132l-76 -63l-110 131q-124 -78 -267 -78q-153 0 -264 96l-170 -141zM401 649q0 -122 85 -208.5 t225 -86.5q149 0 260.5 110.5t111.5 270.5q0 122 -85 208.5t-226 86.5q-148 0 -259.5 -110t-111.5 -271z" />
<glyph unicode="&#xa5;" horiz-adv-x="1273" d="M203 367l16 86h445l18 106l-66 129h-356l14 86h299l-282 555h115l339 -676l578 676h123l-475 -555h303l-14 -86h-363l-111 -129l-18 -106h451l-17 -86h-450l-64 -367h-104l63 367h-444z" />
<glyph unicode="&#xa6;" horiz-adv-x="456" d="M145 -166l103 584h104l-102 -584h-105zM307 745l103 584h104l-102 -584h-105z" />
<glyph unicode="&#xa7;" horiz-adv-x="952" d="M102 -82l78 62q41 -51 117.5 -81t163.5 -30q131 0 205.5 47t74.5 133q0 52 -30.5 92.5t-79 67.5t-107 52t-117.5 52.5t-107.5 61t-79 86t-30.5 119.5q0 101 62.5 172t181.5 108q-123 70 -123 203q0 130 110.5 207.5t291.5 77.5q104 0 195 -36t141 -100l-78 -61 q-85 109 -266 109q-135 0 -215 -52t-80 -143q0 -48 30.5 -84.5t79 -59.5t107 -43.5t117.5 -45.5t107.5 -57t79 -85.5t30.5 -124.5q0 -104 -63.5 -181.5t-180.5 -115.5q125 -85 125 -211q0 -131 -104 -203.5t-285 -72.5q-104 0 -203.5 37.5t-147.5 99.5zM291 586 q0 -37 15.5 -69t38 -53.5t61 -44.5t70 -37t81 -35.5t78.5 -35.5q110 28 168.5 90.5t58.5 155.5q0 40 -15.5 73.5t-36 54.5t-60 42.5t-67.5 32t-80 29t-77 28.5q-235 -51 -235 -231z" />
<glyph unicode="&#xa8;" horiz-adv-x="1228" d="M358 1192l23 135h133l-22 -135h-134zM745 1192l23 135h133l-24 -135h-132z" />
<glyph unicode="&#xa9;" horiz-adv-x="1529" d="M203 565q0 165 59 310.5t161 249.5t244.5 164.5t303.5 60.5q126 0 236 -44t187.5 -121t122 -186t44.5 -235q0 -166 -59.5 -311.5t-161.5 -249t-244.5 -163.5t-302.5 -60q-169 0 -304 75t-210.5 208.5t-75.5 301.5zM287 571q0 -224 142 -370t372 -146q187 0 341.5 92 t243.5 253t89 356q0 226 -141 372t-371 146q-189 0 -344 -92.5t-243.5 -253.5t-88.5 -357zM508 625q0 180 123 303t295 123q103 0 184.5 -48.5t122.5 -128.5l-72 -38q-73 133 -246 133q-134 0 -228.5 -96t-94.5 -244q0 -114 71.5 -189t198.5 -75q78 0 146 33.5t112 95.5 l64 -48q-57 -76 -145.5 -119.5t-186.5 -43.5q-151 0 -247.5 99.5t-96.5 242.5z" />
<glyph unicode="&#xaa;" horiz-adv-x="874" d="M262 989q0 143 103 246.5t249 103.5q83 0 147 -38.5t95 -106.5l25 135h90l-107 -610h-90l19 104q-100 -118 -252 -118q-122 0 -200.5 80t-78.5 204zM354 995q0 -90 58.5 -146t148.5 -56q105 0 181.5 76.5t76.5 181.5q0 89 -57.5 144.5t-147.5 55.5q-107 0 -183.5 -75.5 t-76.5 -180.5z" />
<glyph unicode="&#xab;" horiz-adv-x="917" d="M164 477l332 336h112l-336 -340l209 -334h-102zM500 477l334 336h112l-338 -340l209 -334h-102z" />
<glyph unicode="&#xac;" horiz-adv-x="1261" d="M276 578l19 98h901l-72 -397h-104l53 299h-797z" />
<glyph unicode="&#xad;" horiz-adv-x="823" d="M213 489l16 99h572l-19 -99h-569z" />
<glyph unicode="&#xae;" horiz-adv-x="1529" d="M203 565q0 165 59 310.5t161 249.5t244.5 164.5t303.5 60.5q126 0 236 -44t187.5 -121t122 -186t44.5 -235q0 -166 -59.5 -311.5t-161.5 -249t-244.5 -163.5t-302.5 -60q-169 0 -304 75t-210.5 208.5t-75.5 301.5zM287 571q0 -224 142 -370t372 -146q187 0 341.5 92 t243.5 253t89 356q0 226 -141 372t-371 146q-189 0 -344 -92.5t-243.5 -253.5t-88.5 -357zM598 283l137 774h217q121 0 190.5 -54t69.5 -153q0 -97 -63 -162t-170 -86l137 -319h-90l-131 311h-10h-150l-55 -311h-82zM748 666h139q113 0 177 45.5t64 136.5q0 66 -47.5 100.5 t-136.5 34.5h-139z" />
<glyph unicode="&#xaf;" horiz-adv-x="1228" d="M338 1225l18 92h625l-16 -92h-627z" />
<glyph unicode="&#xb0;" horiz-adv-x="737" d="M272 1032q0 130 92.5 219.5t219.5 89.5q110 0 183 -72.5t73 -174.5q0 -131 -92.5 -220.5t-219.5 -89.5q-111 0 -183.5 72t-72.5 176zM360 1036q0 -69 49 -118.5t130 -49.5q85 0 150 63.5t65 155.5q0 70 -49.5 120t-131.5 50q-85 0 -149 -64t-64 -157z" />
<glyph unicode="&#xb1;" horiz-adv-x="1261" d="M209 160l16 98h901l-16 -98h-901zM313 762l19 98h401l62 350h98l-62 -350h402l-19 -98h-401l-61 -352h-99l62 352h-402z" />
<glyph unicode="&#xb2;" horiz-adv-x="731" d="M223 598l13 61l311 269q47 39 73 64.5t52 70t26 88.5q0 47 -29.5 72.5t-86.5 25.5q-67 0 -112 -38t-56 -117h-92q18 125 91 185t177 60q99 0 152 -48t53 -130q0 -135 -183 -284l-217 -189h340l-16 -90h-496z" />
<glyph unicode="&#xb3;" horiz-adv-x="679" d="M223 791l92 30q3 -74 45.5 -110.5t112.5 -36.5q73 0 117.5 43.5t44.5 116.5q0 56 -37 89t-98 33h-47l-33 64l244 221h-326l16 88h441l-17 -88l-237 -221q90 -6 138 -58.5t48 -125.5q0 -111 -73 -179.5t-185 -68.5q-103 0 -171.5 52.5t-74.5 150.5z" />
<glyph unicode="&#xb4;" horiz-adv-x="1228" d="M324 1165l462 256l39 -90l-467 -248z" />
<glyph unicode="&#xb5;" horiz-adv-x="1167" d="M115 -250l217 1223h100l-92 -524q-17 -95 0 -168.5t61.5 -117.5t104.5 -66.5t133 -22.5q142 0 235 86.5t123 261.5l99 551h100l-102 -584q-37 -207 -155.5 -308t-293.5 -101q-143 0 -235 63.5t-113 169.5l-80 -463h-102z" />
<glyph unicode="&#xb6;" horiz-adv-x="1212" d="M213 858q0 208 142 339.5t382 131.5h627l-16 -90h-125l-246 -1405h-94l247 1405h-258l-245 -1405h-99l119 678h-55q-181 0 -280 93.5t-99 252.5z" />
<glyph unicode="&#xb7;" horiz-adv-x="393" d="M223 535l23 139h137l-23 -139h-137z" />
<glyph unicode="&#xb8;" horiz-adv-x="1228" d="M51 -401l68 55q12 -36 47 -57t86 -21q68 0 107.5 38t39.5 105q0 46 -27.5 75.5t-78.5 29.5h-127l106 201h80l-67 -129h39q73 0 119 -50t46 -125q0 -99 -68.5 -161t-174.5 -62q-69 0 -119.5 27t-75.5 74z" />
<glyph unicode="&#xb9;" horiz-adv-x="450" d="M268 1235l17 94h260l-129 -731h-105l113 637h-156z" />
<glyph unicode="&#xba;" horiz-adv-x="811" d="M260 989q0 143 106 246.5t252 103.5q129 0 212 -79t83 -203q0 -143 -106.5 -247.5t-253.5 -104.5q-128 0 -210.5 80t-82.5 204zM352 995q0 -90 59.5 -146t149.5 -56q105 0 181.5 76.5t76.5 181.5q0 89 -58.5 144.5t-148.5 55.5q-105 0 -182.5 -76.5t-77.5 -179.5z" />
<glyph unicode="&#xbb;" horiz-adv-x="919" d="M141 139l336 342l-207 332h103l215 -336l-334 -338h-113zM479 139l336 340l-209 334h103l215 -336l-332 -338h-113z" />
<glyph unicode="&#xbc;" horiz-adv-x="1306" d="M219 0l893 1329h94l-891 -1329h-96zM281 1235l16 94h260l-129 -731h-104l112 637h-155zM819 190l17 91l284 450h107l-283 -450h264l43 241h99l-43 -241h96l-17 -91h-96l-33 -190h-98l33 190h-373z" />
<glyph unicode="&#xbd;" horiz-adv-x="1310" d="M217 0l893 1329h94l-893 -1329h-94zM279 1235l16 94h260l-129 -731h-104l112 637h-155zM850 0l12 61l312 269q47 39 73 64.5t52 70t26 88.5q0 47 -29.5 72.5t-87.5 25.5q-67 0 -112 -38t-56 -117h-92q18 125 91.5 185t177.5 60q99 0 151.5 -48t52.5 -130 q0 -136 -182 -284l-217 -189h340l-16 -90h-496z" />
<glyph unicode="&#xbe;" horiz-adv-x="1466" d="M207 791l92 30q1 -74 43.5 -110.5t114.5 -36.5t116.5 43.5t44.5 116.5q0 56 -37 89t-100 33h-45l-33 64l242 221h-323l16 88h438l-14 -88l-240 -221q92 -6 140.5 -58.5t48.5 -125.5q0 -111 -73 -179.5t-187 -68.5q-102 0 -171 53t-73 150zM381 0l893 1329h94l-893 -1329 h-94zM981 190l16 91l285 450h104l-280 -450h264l43 241h98l-43 -241h95l-15 -91h-96l-33 -190h-98l33 190h-373z" />
<glyph unicode="&#xbf;" horiz-adv-x="892" d="M57 -92q0 69 22 129.5t57.5 104.5t79.5 83.5t89 74.5t84 68.5t68 74t37 83.5l16 88h102l-14 -94q-9 -50 -37.5 -96t-67 -82.5t-83.5 -72t-88 -72.5t-78 -76.5t-56.5 -91.5t-21.5 -111q0 -90 60.5 -143.5t174.5 -53.5q128 0 220 81.5t120 240.5h105q-18 -106 -61 -188 t-103.5 -132t-133.5 -75t-155 -25q-155 0 -245.5 79.5t-90.5 205.5zM535 838l24 135h131l-24 -135h-131z" />
<glyph unicode="&#xc0;" d="M31 0l757 1329h132l290 -1329h-100l-88 383h-660l-215 -383h-116zM420 481h579l-155 744zM686 1698l57 86l375 -256l-51 -76z" />
<glyph unicode="&#xc1;" d="M31 0l757 1329h132l290 -1329h-100l-88 383h-660l-215 -383h-116zM420 481h579l-155 744zM653 1534l465 256l37 -92l-467 -246z" />
<glyph unicode="&#xc2;" d="M31 0l757 1329h132l290 -1329h-100l-88 383h-660l-215 -383h-116zM420 481h579l-155 744zM547 1524l366 264h48l274 -264l-61 -68l-246 223l-336 -231z" />
<glyph unicode="&#xc3;" d="M31 0l757 1329h132l290 -1329h-100l-88 383h-660l-215 -383h-116zM420 481h579l-155 744zM549 1530q12 91 70 145t145 54q45 0 86 -18t68 -39.5t64.5 -39.5t74.5 -18q53 0 85.5 28t41.5 78h86q-15 -92 -71 -145t-138 -53q-48 0 -91.5 18t-70 39t-62.5 39t-71 18 q-56 0 -89.5 -28t-41.5 -78h-86z" />
<glyph unicode="&#xc4;" d="M31 0l757 1329h132l290 -1329h-100l-88 383h-660l-215 -383h-116zM420 481h579l-155 744zM623 1546l26 154h152l-27 -154h-151zM1014 1546l26 154h152l-27 -154h-151z" />
<glyph unicode="&#xc5;" d="M31 0l757 1329h132l290 -1329h-100l-88 383h-660l-215 -383h-116zM420 481h579l-155 744zM705 1638q0 91 68 158.5t167 67.5q83 0 135.5 -49.5t52.5 -124.5q0 -91 -68 -159.5t-167 -68.5q-83 0 -135.5 49.5t-52.5 126.5zM788 1647q0 -45 30.5 -76t80.5 -31q62 0 105 43 t43 100q0 44 -31.5 74.5t-81.5 30.5q-61 0 -103.5 -42.5t-42.5 -98.5z" />
<glyph unicode="&#xc6;" horiz-adv-x="1710" d="M-20 0l1067 1329h806l-14 -98h-653l-86 -498h590l-17 -98h-592l-94 -537h653l-18 -98h-758l68 387h-516l-310 -387h-126zM496 487h454l127 727z" />
<glyph unicode="&#xc7;" horiz-adv-x="1376" d="M203 565q0 165 57 310.5t155.5 249.5t238.5 164.5t300 60.5q177 0 316 -84.5t209 -229.5l-97 -53q-55 123 -170 194.5t-268 71.5q-180 0 -325.5 -88.5t-226.5 -242.5t-81 -343q0 -218 129 -356.5t348 -138.5q153 0 285.5 67t222.5 187l82 -62q-103 -139 -259 -215.5 t-341 -76.5h-24l-45 -84h41q73 0 119 -50t46 -125q0 -99 -68.5 -161t-174.5 -62q-140 0 -195 101l68 55q27 -78 133 -78q68 0 107.5 38t39.5 105q0 46 -27.5 75.5t-78.5 29.5h-127l86 164q-215 32 -345 190t-130 387z" />
<glyph unicode="&#xc8;" horiz-adv-x="1024" d="M178 0l234 1329h755l-14 -98h-653l-88 -498h592l-19 -98h-590l-94 -537h653l-18 -98h-758zM653 1698l58 86l374 -256l-51 -76z" />
<glyph unicode="&#xc9;" horiz-adv-x="1024" d="M178 0l234 1329h755l-14 -98h-653l-88 -498h592l-19 -98h-590l-94 -537h653l-18 -98h-758zM621 1534l462 256l39 -92l-467 -246z" />
<glyph unicode="&#xca;" horiz-adv-x="1024" d="M178 0l234 1329h755l-14 -98h-653l-88 -498h592l-19 -98h-590l-94 -537h653l-18 -98h-758zM514 1524l367 264h47l274 -264l-61 -68l-246 223l-336 -231z" />
<glyph unicode="&#xcb;" horiz-adv-x="1024" d="M178 0l234 1329h755l-14 -98h-653l-88 -498h592l-19 -98h-590l-94 -537h653l-18 -98h-758zM588 1546l28 154h152l-29 -154h-151zM981 1546l27 154h151l-26 -154h-152z" />
<glyph unicode="&#xcc;" horiz-adv-x="462" d="M178 0l234 1329h106l-233 -1329h-107zM295 1698l59 86l373 -256l-51 -76z" />
<glyph unicode="&#xcd;" horiz-adv-x="462" d="M178 0l234 1329h106l-233 -1329h-107zM262 1534l465 256l37 -92l-465 -246z" />
<glyph unicode="&#xce;" horiz-adv-x="462" d="M158 1524l366 264h45l277 -264l-64 -68l-243 223l-338 -231zM178 0l234 1329h106l-233 -1329h-107z" />
<glyph unicode="&#xcf;" horiz-adv-x="462" d="M178 0l234 1329h106l-233 -1329h-107zM231 1546l27 154h152l-27 -154h-152zM623 1546l28 154h152l-29 -154h-151z" />
<glyph unicode="&#xd0;" horiz-adv-x="1378" d="M160 618l18 95h144l108 616h393q258 0 425 -159.5t167 -405.5q0 -214 -101.5 -389.5t-277.5 -275t-389 -99.5h-450l108 618h-145zM319 100h338q180 0 328.5 85.5t234 235.5t85.5 333q0 207 -135.5 341t-356.5 134h-297l-90 -516h403l-16 -95h-403z" />
<glyph unicode="&#xd1;" horiz-adv-x="1462" d="M178 0l234 1329h116l678 -1171l205 1171h105l-234 -1329h-104l-686 1186l-209 -1186h-105zM674 1530q12 91 70 145t145 54q45 0 86 -18t68 -39.5t64.5 -39.5t74.5 -18q53 0 85.5 28t41.5 78h86q-15 -92 -71 -145t-138 -53q-48 0 -91.5 18t-70 39t-62.5 39t-71 18 q-56 0 -89.5 -28t-41.5 -78h-86z" />
<glyph unicode="&#xd2;" horiz-adv-x="1515" d="M197 565q0 220 101 400t277 282.5t390 102.5q258 0 424.5 -165.5t166.5 -420.5q0 -221 -101.5 -401t-277.5 -281.5t-389 -101.5q-169 0 -304 75t-211 208.5t-76 301.5zM307 575q0 -216 136 -355.5t356 -139.5q135 0 255 52t206 141t136 214.5t50 266.5q0 215 -135.5 355 t-356.5 140q-181 0 -329.5 -88.5t-233 -243t-84.5 -342.5zM821 1698l60 86l372 -256l-51 -76z" />
<glyph unicode="&#xd3;" horiz-adv-x="1515" d="M197 565q0 220 101 400t277 282.5t390 102.5q258 0 424.5 -165.5t166.5 -420.5q0 -221 -101.5 -401t-277.5 -281.5t-389 -101.5q-169 0 -304 75t-211 208.5t-76 301.5zM307 575q0 -216 136 -355.5t356 -139.5q135 0 255 52t206 141t136 214.5t50 266.5q0 215 -135.5 355 t-356.5 140q-181 0 -329.5 -88.5t-233 -243t-84.5 -342.5zM788 1534l465 256l37 -92l-465 -246z" />
<glyph unicode="&#xd4;" horiz-adv-x="1515" d="M197 565q0 220 101 400t277 282.5t390 102.5q258 0 424.5 -165.5t166.5 -420.5q0 -221 -101.5 -401t-277.5 -281.5t-389 -101.5q-169 0 -304 75t-211 208.5t-76 301.5zM307 575q0 -216 136 -355.5t356 -139.5q135 0 255 52t206 141t136 214.5t50 266.5q0 215 -135.5 355 t-356.5 140q-181 0 -329.5 -88.5t-233 -243t-84.5 -342.5zM682 1524l367 264h47l274 -264l-61 -68l-244 223l-338 -231z" />
<glyph unicode="&#xd5;" horiz-adv-x="1515" d="M197 565q0 220 101 400t277 282.5t390 102.5q258 0 424.5 -165.5t166.5 -420.5q0 -221 -101.5 -401t-277.5 -281.5t-389 -101.5q-169 0 -304 75t-211 208.5t-76 301.5zM307 575q0 -216 136 -355.5t356 -139.5q135 0 255 52t206 141t136 214.5t50 266.5q0 215 -135.5 355 t-356.5 140q-181 0 -329.5 -88.5t-233 -243t-84.5 -342.5zM684 1530q12 91 70.5 145t144.5 54q45 0 87 -18t69 -39.5t64.5 -39.5t74.5 -18q52 0 85 28t42 78h84q-13 -92 -69.5 -145t-139.5 -53q-47 0 -90.5 18t-70.5 39t-63 39t-71 18q-112 0 -131 -106h-86z" />
<glyph unicode="&#xd6;" horiz-adv-x="1515" d="M197 565q0 220 101 400t277 282.5t390 102.5q258 0 424.5 -165.5t166.5 -420.5q0 -221 -101.5 -401t-277.5 -281.5t-389 -101.5q-169 0 -304 75t-211 208.5t-76 301.5zM307 575q0 -216 136 -355.5t356 -139.5q135 0 255 52t206 141t136 214.5t50 266.5q0 215 -135.5 355 t-356.5 140q-181 0 -329.5 -88.5t-233 -243t-84.5 -342.5zM758 1546l26 154h152l-27 -154h-151zM1149 1546l27 154h151l-27 -154h-151z" />
<glyph unicode="&#xd7;" horiz-adv-x="1261" d="M305 315l365 312l-254 307l80 70l254 -310l366 312l60 -72l-367 -311l254 -310l-80 -67l-254 309l-367 -311z" />
<glyph unicode="&#xd8;" horiz-adv-x="1540" d="M117 55l196 168q-102 145 -102 342q0 220 101 400t277 282.5t390 102.5q135 0 249 -49t193 -138l207 176l60 -73l-209 -176q90 -145 90 -326q0 -166 -59.5 -311.5t-161.5 -249t-244.5 -163.5t-302.5 -60q-127 0 -237 44.5t-191 125.5l-199 -168zM322 575q0 -161 75 -280 l942 799q-139 155 -370 155q-136 0 -256.5 -52t-206 -141.5t-135 -214.5t-49.5 -266zM457 221q135 -141 354 -141q136 0 256 52t206.5 141t136.5 214.5t50 266.5q0 150 -65 262z" />
<glyph unicode="&#xd9;" horiz-adv-x="1409" d="M260 555l135 774h107l-135 -770q-21 -127 -6 -217.5t66 -148.5t125.5 -85.5t174.5 -27.5q429 0 512 479l135 770h105l-136 -774q-50 -295 -208 -435t-418 -140q-255 0 -381.5 149t-75.5 426zM768 1698l57 86l375 -256l-51 -76z" />
<glyph unicode="&#xda;" horiz-adv-x="1409" d="M260 555l135 774h107l-135 -770q-21 -127 -6 -217.5t66 -148.5t125.5 -85.5t174.5 -27.5q429 0 512 479l135 770h105l-136 -774q-50 -295 -208 -435t-418 -140q-255 0 -381.5 149t-75.5 426zM735 1534l465 256l37 -92l-467 -246z" />
<glyph unicode="&#xdb;" horiz-adv-x="1409" d="M260 555l135 774h107l-135 -770q-21 -127 -6 -217.5t66 -148.5t125.5 -85.5t174.5 -27.5q429 0 512 479l135 770h105l-136 -774q-50 -295 -208 -435t-418 -140q-255 0 -381.5 149t-75.5 426zM629 1524l366 264h47l275 -264l-62 -68l-245 221l-336 -229z" />
<glyph unicode="&#xdc;" horiz-adv-x="1409" d="M260 555l135 774h107l-135 -770q-21 -127 -6 -217.5t66 -148.5t125.5 -85.5t174.5 -27.5q429 0 512 479l135 770h105l-136 -774q-50 -295 -208 -435t-418 -140q-255 0 -381.5 149t-75.5 426zM705 1546l26 154h152l-27 -154h-151zM1096 1546l26 154h152l-27 -154h-151z " />
<glyph unicode="&#xdd;" horiz-adv-x="1234" d="M272 1329h115l340 -676l578 676h122l-659 -770l-98 -559h-105l99 559zM647 1534l465 256l37 -92l-465 -246z" />
<glyph unicode="&#xde;" horiz-adv-x="1122" d="M178 0l234 1329h106l-43 -248h297q178 0 285.5 -100t107.5 -250q0 -215 -149.5 -346t-384.5 -131h-301l-45 -254h-107zM346 352h301q183 0 296.5 101t113.5 268q0 117 -79 189.5t-222 72.5h-299z" />
<glyph unicode="&#xdf;" horiz-adv-x="1112" d="M160 0l168 958q37 215 160 330t321 115q154 0 249 -83t95 -214q0 -137 -78.5 -241.5t-206.5 -141.5q108 -30 171 -109.5t63 -179.5q0 -210 -151.5 -322t-415.5 -112h-95l17 94h94q210 0 330 87.5t120 246.5q0 114 -85 180t-240 66h-117l14 92h109q166 0 267.5 90 t101.5 238q0 98 -66.5 156.5t-183.5 58.5q-150 0 -245.5 -89t-125.5 -264l-170 -956h-100z" />
<glyph unicode="&#xe0;" horiz-adv-x="1241" d="M160 430q0 156 76.5 285.5t204 202.5t274.5 73q141 0 244.5 -72.5t150.5 -193.5l43 248h102l-172 -973h-102l33 188q-74 -96 -179.5 -152t-222.5 -56q-195 0 -323.5 131.5t-128.5 318.5zM260 434q0 -148 104 -253t273 -105q110 0 208.5 59.5t160 166.5t61.5 235 q0 149 -98.5 254.5t-259.5 105.5q-118 0 -221 -60t-165.5 -167t-62.5 -236zM600 1329l59 84l373 -256l-51 -76z" />
<glyph unicode="&#xe1;" horiz-adv-x="1241" d="M160 430q0 156 76.5 285.5t204 202.5t274.5 73q141 0 244.5 -72.5t150.5 -193.5l43 248h102l-172 -973h-102l33 188q-74 -96 -179.5 -152t-222.5 -56q-195 0 -323.5 131.5t-128.5 318.5zM260 434q0 -148 104 -253t273 -105q110 0 208.5 59.5t160 166.5t61.5 235 q0 149 -98.5 254.5t-259.5 105.5q-118 0 -221 -60t-165.5 -167t-62.5 -236zM565 1165l465 256l37 -90l-465 -248z" />
<glyph unicode="&#xe2;" horiz-adv-x="1241" d="M160 430q0 156 76.5 285.5t204 202.5t274.5 73q141 0 244.5 -72.5t150.5 -193.5l43 248h102l-172 -973h-102l33 188q-74 -96 -179.5 -152t-222.5 -56q-195 0 -323.5 131.5t-128.5 318.5zM260 434q0 -148 104 -253t273 -105q110 0 208.5 59.5t160 166.5t61.5 235 q0 149 -98.5 254.5t-259.5 105.5q-118 0 -221 -60t-165.5 -167t-62.5 -236zM465 1182l373 262h32l283 -262l-63 -68l-244 223l-338 -231z" />
<glyph unicode="&#xe3;" horiz-adv-x="1241" d="M160 430q0 156 76.5 285.5t204 202.5t274.5 73q141 0 244.5 -72.5t150.5 -193.5l43 248h102l-172 -973h-102l33 188q-74 -96 -179.5 -152t-222.5 -56q-195 0 -323.5 131.5t-128.5 318.5zM260 434q0 -148 104 -253t273 -105q110 0 208.5 59.5t160 166.5t61.5 235 q0 149 -98.5 254.5t-259.5 105.5q-118 0 -221 -60t-165.5 -167t-62.5 -236zM465 1180q12 90 70 144t145 54q45 0 86 -18t68 -40t64.5 -40t74.5 -18q110 0 129 108h84q-15 -92 -71.5 -145.5t-139.5 -53.5q-47 0 -90.5 18.5t-70.5 40t-63 40t-71 18.5q-114 0 -133 -108h-82z " />
<glyph unicode="&#xe4;" horiz-adv-x="1241" d="M160 430q0 156 76.5 285.5t204 202.5t274.5 73q141 0 244.5 -72.5t150.5 -193.5l43 248h102l-172 -973h-102l33 188q-74 -96 -179.5 -152t-222.5 -56q-195 0 -323.5 131.5t-128.5 318.5zM260 434q0 -148 104 -253t273 -105q110 0 208.5 59.5t160 166.5t61.5 235 q0 149 -98.5 254.5t-259.5 105.5q-118 0 -221 -60t-165.5 -167t-62.5 -236zM549 1192l22 135h134l-23 -135h-133zM936 1192l22 135h134l-23 -135h-133z" />
<glyph unicode="&#xe5;" horiz-adv-x="1241" d="M160 430q0 156 76.5 285.5t204 202.5t274.5 73q141 0 244.5 -72.5t150.5 -193.5l43 248h102l-172 -973h-102l33 188q-74 -96 -179.5 -152t-222.5 -56q-195 0 -323.5 131.5t-128.5 318.5zM260 434q0 -148 104 -253t273 -105q110 0 208.5 59.5t160 166.5t61.5 235 q0 149 -98.5 254.5t-259.5 105.5q-118 0 -221 -60t-165.5 -167t-62.5 -236zM616 1247q0 90 67 156.5t165 66.5q81 0 133.5 -49.5t52.5 -124.5q0 -90 -67 -156.5t-166 -66.5q-82 0 -133.5 48.5t-51.5 125.5zM696 1255q0 -46 30.5 -77t80.5 -31q63 0 105 43t42 102 q0 43 -30.5 74t-81.5 31q-61 0 -103.5 -43t-42.5 -99z" />
<glyph unicode="&#xe6;" horiz-adv-x="2043" d="M160 430q0 156 76.5 285.5t204 202.5t274.5 73q141 0 244.5 -72.5t150.5 -193.5l43 248h98l-30 -178q74 92 180 144t223 52q196 0 320 -127t124 -313q0 -47 -12 -94h-885v-23q0 -150 100.5 -255t262.5 -105q99 0 188 41.5t154 117.5l70 -57q-171 -196 -422 -196 q-144 0 -249.5 73t-152.5 195l-43 -248h-98l33 188q-74 -96 -179.5 -152t-222.5 -56q-195 0 -323.5 131.5t-128.5 318.5zM260 434q0 -148 104 -253t273 -105q110 0 208.5 59.5t160 166.5t61.5 235q0 149 -98.5 254.5t-259.5 105.5q-118 0 -221 -60t-165.5 -167t-62.5 -236z M1182 539h786q0 99 -40.5 179t-124.5 129.5t-199 49.5q-145 0 -266 -101t-156 -257z" />
<glyph unicode="&#xe7;" horiz-adv-x="1071" d="M160 430q0 156 75.5 285.5t203 202.5t276.5 73q134 0 240 -62.5t163 -168.5l-86 -47q-46 86 -130.5 135t-201.5 49q-86 0 -166 -35.5t-140.5 -96.5t-97 -147.5t-36.5 -183.5q0 -149 100.5 -253.5t268.5 -104.5q100 0 194 47t154 127l78 -55q-77 -100 -193.5 -157.5 t-245.5 -57.5h-6l-43 -84h39q73 0 119.5 -50.5t46.5 -124.5q0 -99 -68.5 -161t-173.5 -62q-70 0 -120 27t-74 74l65 55q30 -78 136 -78q67 0 107 38t40 105q0 46 -27.5 75.5t-78.5 29.5h-127l86 162q-169 27 -273 152t-104 292z" />
<glyph unicode="&#xe8;" horiz-adv-x="1134" d="M160 430q0 155 76.5 285t201.5 203t269 73q197 0 323.5 -127t126.5 -313q0 -55 -10 -94h-885v-23q0 -150 100 -255t265 -105q97 0 185 41.5t155 117.5l69 -59q-169 -194 -426 -194q-127 0 -231 61t-161.5 164t-57.5 225zM272 539h785q0 152 -97.5 255t-267.5 103 q-144 0 -264.5 -101t-155.5 -257zM571 1329l58 84l375 -256l-52 -76z" />
<glyph unicode="&#xe9;" horiz-adv-x="1134" d="M160 430q0 155 76.5 285t201.5 203t269 73q197 0 323.5 -127t126.5 -313q0 -55 -10 -94h-885v-23q0 -150 100 -255t265 -105q97 0 185 41.5t155 117.5l69 -59q-169 -194 -426 -194q-127 0 -231 61t-161.5 164t-57.5 225zM272 539h785q0 152 -97.5 255t-267.5 103 q-144 0 -264.5 -101t-155.5 -257zM537 1165l464 256l37 -90l-465 -248z" />
<glyph unicode="&#xea;" horiz-adv-x="1134" d="M160 430q0 155 76.5 285t201.5 203t269 73q197 0 323.5 -127t126.5 -313q0 -55 -10 -94h-885v-23q0 -150 100 -255t265 -105q97 0 185 41.5t155 117.5l69 -59q-169 -194 -426 -194q-127 0 -231 61t-161.5 164t-57.5 225zM272 539h785q0 152 -97.5 255t-267.5 103 q-144 0 -264.5 -101t-155.5 -257zM395 1182l373 262h35l280 -262l-61 -68l-244 223l-338 -231z" />
<glyph unicode="&#xeb;" horiz-adv-x="1134" d="M160 430q0 155 76.5 285t201.5 203t269 73q197 0 323.5 -127t126.5 -313q0 -55 -10 -94h-885v-23q0 -150 100 -255t265 -105q97 0 185 41.5t155 117.5l69 -59q-169 -194 -426 -194q-127 0 -231 61t-161.5 164t-57.5 225zM272 539h785q0 152 -97.5 255t-267.5 103 q-144 0 -264.5 -101t-155.5 -257zM520 1192l23 135h133l-23 -135h-133zM907 1192l23 135h133l-23 -135h-133z" />
<glyph unicode="&#xec;" horiz-adv-x="421" d="M160 0l172 973h102l-172 -973h-102zM211 1329l59 84l373 -256l-51 -76z" />
<glyph unicode="&#xed;" horiz-adv-x="421" d="M160 0l172 973h102l-172 -973h-102zM176 1165l465 256l37 -90l-465 -248z" />
<glyph unicode="&#xee;" horiz-adv-x="421" d="M76 1182l373 262h32l283 -262l-62 -68l-245 223l-338 -231zM160 0l172 973h102l-172 -973h-102z" />
<glyph unicode="&#xef;" horiz-adv-x="421" d="M160 0l172 973h102l-172 -973h-102zM160 1192l22 135h133l-22 -135h-133zM547 1192l22 135h133l-22 -135h-133z" />
<glyph unicode="&#xf0;" horiz-adv-x="1198" d="M160 424q0 154 78 283.5t204 201.5t269 72q145 0 248 -67.5t153 -190.5q-6 170 -66 299.5t-167 204.5l-150 -160l-61 47l141 152q-108 51 -240 51l15 86q165 0 293 -64l135 144l63 -47l-131 -140q129 -92 194.5 -254t65.5 -372q0 -148 -38.5 -273.5t-111.5 -218.5 t-186 -145.5t-254 -52.5q-194 0 -324 130t-130 314zM260 428q0 -146 103 -249t274 -103q116 0 218.5 58.5t166 164t63.5 231.5q0 147 -102.5 251t-273.5 104q-87 0 -168.5 -35t-143.5 -95t-99.5 -145.5t-37.5 -181.5z" />
<glyph unicode="&#xf1;" horiz-adv-x="1171" d="M160 0l172 973h100l-37 -207q59 106 161.5 165.5t231.5 59.5q184 0 278 -112t58 -318l-98 -561h-102l94 545q29 168 -38.5 260t-211.5 92q-66 0 -129 -20.5t-119.5 -60.5t-99.5 -108.5t-62 -156.5l-96 -551h-102zM455 1180q11 89 69 143.5t144 54.5q45 0 87 -18t69 -40 t64.5 -40t74.5 -18q110 0 129 108h82q-13 -92 -69.5 -145.5t-139.5 -53.5q-47 0 -90.5 18.5t-70.5 40t-63 40t-71 18.5q-114 0 -133 -108h-82z" />
<glyph unicode="&#xf2;" horiz-adv-x="1177" d="M162 430q0 155 78 285t207 203t276 73q133 0 240 -61t166 -164t59 -225q0 -156 -78 -285.5t-207.5 -202.5t-277.5 -73q-198 0 -330.5 131.5t-132.5 318.5zM262 434q0 -148 104 -253t273 -105q116 0 218.5 59.5t166 166.5t63.5 235q0 96 -44 177.5t-131 132t-201 50.5 q-116 0 -219 -60t-166.5 -167.5t-63.5 -235.5zM590 1329l57 84l375 -256l-51 -76z" />
<glyph unicode="&#xf3;" horiz-adv-x="1177" d="M162 430q0 155 78 285t207 203t276 73q133 0 240 -61t166 -164t59 -225q0 -156 -78 -285.5t-207.5 -202.5t-277.5 -73q-198 0 -330.5 131.5t-132.5 318.5zM262 434q0 -148 104 -253t273 -105q116 0 218.5 59.5t166 166.5t63.5 235q0 96 -44 177.5t-131 132t-201 50.5 q-116 0 -219 -60t-166.5 -167.5t-63.5 -235.5zM555 1165l465 256l37 -90l-465 -248z" />
<glyph unicode="&#xf4;" horiz-adv-x="1177" d="M162 430q0 155 78 285t207 203t276 73q133 0 240 -61t166 -164t59 -225q0 -156 -78 -285.5t-207.5 -202.5t-277.5 -73q-198 0 -330.5 131.5t-132.5 318.5zM262 434q0 -148 104 -253t273 -105q116 0 218.5 59.5t166 166.5t63.5 235q0 96 -44 177.5t-131 132t-201 50.5 q-116 0 -219 -60t-166.5 -167.5t-63.5 -235.5zM453 1182l372 262h35l281 -262l-62 -68l-243 223l-338 -231z" />
<glyph unicode="&#xf5;" horiz-adv-x="1177" d="M162 430q0 155 78 285t207 203t276 73q133 0 240 -61t166 -164t59 -225q0 -156 -78 -285.5t-207.5 -202.5t-277.5 -73q-198 0 -330.5 131.5t-132.5 318.5zM262 434q0 -148 104 -253t273 -105q116 0 218.5 59.5t166 166.5t63.5 235q0 96 -44 177.5t-131 132t-201 50.5 q-116 0 -219 -60t-166.5 -167.5t-63.5 -235.5zM455 1180q12 90 69.5 144t143.5 54q45 0 87 -18t69 -40t64.5 -40t74.5 -18q110 0 129 108h82q-13 -92 -69.5 -145.5t-139.5 -53.5q-47 0 -90.5 18.5t-70.5 40t-63 40t-71 18.5q-114 0 -133 -108h-82z" />
<glyph unicode="&#xf6;" horiz-adv-x="1177" d="M162 430q0 155 78 285t207 203t276 73q133 0 240 -61t166 -164t59 -225q0 -156 -78 -285.5t-207.5 -202.5t-277.5 -73q-198 0 -330.5 131.5t-132.5 318.5zM262 434q0 -148 104 -253t273 -105q116 0 218.5 59.5t166 166.5t63.5 235q0 96 -44 177.5t-131 132t-201 50.5 q-116 0 -219 -60t-166.5 -167.5t-63.5 -235.5zM539 1192l22 135h133l-22 -135h-133zM926 1192l22 135h133l-22 -135h-133z" />
<glyph unicode="&#xf7;" horiz-adv-x="1261" d="M281 578l18 98h901l-18 -98h-901zM600 279q0 33 25 57t61 24q33 0 53.5 -19.5t20.5 -51.5q0 -34 -25.5 -59t-60.5 -25q-33 0 -53.5 20.5t-20.5 53.5zM721 965q0 33 25 57.5t61 24.5q32 0 53 -20t21 -52q0 -34 -25 -59t-61 -25q-33 0 -53.5 20.5t-20.5 53.5z" />
<glyph unicode="&#xf8;" horiz-adv-x="1204" d="M90 33l164 139q-80 116 -80 258q0 155 78 285t207 203t276 73q200 0 332 -129l166 142l51 -64l-166 -139q82 -114 82 -260q0 -155 -78 -285t-207 -203t-276 -73q-98 0 -183.5 34.5t-148.5 96.5l-166 -142zM274 434q0 -107 58 -196l659 559q-108 100 -268 100 q-115 0 -218 -60t-167 -167.5t-64 -235.5zM383 176q108 -100 268 -100q116 0 219 59.5t166.5 166.5t63.5 235q0 106 -58 198z" />
<glyph unicode="&#xf9;" horiz-adv-x="1167" d="M215 412l98 561h103l-97 -545q-29 -169 38.5 -260.5t213.5 -91.5q92 0 174.5 37t149.5 123t88 210l-2 -22l96 549h103l-172 -973h-103l37 203q-59 -104 -162 -162.5t-231 -58.5q-184 0 -277 111.5t-57 318.5zM602 1329l57 84l373 -256l-51 -76z" />
<glyph unicode="&#xfa;" horiz-adv-x="1167" d="M215 412l98 561h103l-97 -545q-29 -169 38.5 -260.5t213.5 -91.5q92 0 174.5 37t149.5 123t88 210l-2 -22l96 549h103l-172 -973h-103l37 203q-59 -104 -162 -162.5t-231 -58.5q-184 0 -277 111.5t-57 318.5zM567 1165l463 256l39 -90l-467 -248z" />
<glyph unicode="&#xfb;" horiz-adv-x="1167" d="M215 412l98 561h103l-97 -545q-29 -169 38.5 -260.5t213.5 -91.5q92 0 174.5 37t149.5 123t88 210l-2 -22l96 549h103l-172 -973h-103l37 203q-59 -104 -162 -162.5t-231 -58.5q-184 0 -277 111.5t-57 318.5zM465 1182l373 262h34l281 -262l-61 -68l-246 223l-336 -231z " />
<glyph unicode="&#xfc;" horiz-adv-x="1167" d="M215 412l98 561h103l-97 -545q-29 -169 38.5 -260.5t213.5 -91.5q92 0 174.5 37t149.5 123t88 210l-2 -22l96 549h103l-172 -973h-103l37 203q-59 -104 -162 -162.5t-231 -58.5q-184 0 -277 111.5t-57 318.5zM549 1192l24 135h134l-25 -135h-133zM936 1192l25 135h133 l-25 -135h-133z" />
<glyph unicode="&#xfd;" horiz-adv-x="1028" d="M184 -449l275 441l-260 981h106l227 -860l517 860h120l-876 -1422h-109zM479 1165l465 256l37 -90l-465 -248z" />
<glyph unicode="&#xfe;" d="M80 -449l323 1831h103l-107 -602q76 98 181 154.5t223 56.5q195 0 323.5 -131.5t128.5 -318.5q0 -156 -76.5 -285.5t-204 -202.5t-274.5 -73q-141 0 -245 73.5t-150 194.5l-123 -697h-102zM348 434q0 -148 98.5 -253t260.5 -105q88 0 170 35.5t143.5 96t98 146.5 t36.5 183q0 148 -104 254t-273 106q-110 0 -208.5 -60t-160 -167.5t-61.5 -235.5z" />
<glyph unicode="&#xff;" horiz-adv-x="1028" d="M184 -449l275 441l-260 981h106l227 -860l517 860h120l-876 -1422h-109zM463 1192l22 135h133l-22 -135h-133zM850 1192l22 135h134l-23 -135h-133z" />
<glyph unicode="&#x152;" horiz-adv-x="2174" d="M197 565q0 220 101 400t277 282.5t390 102.5q189 0 333 -92t211 -250l56 321h755l-16 -98h-651l-88 -498h592l-19 -98h-592q-2 -20 -10 -60l-84 -477h655l-18 -98h-758l43 248q-106 -126 -258 -197t-328 -71q-169 0 -304 75t-211 208.5t-76 301.5zM307 575 q0 -216 136 -355.5t356 -139.5q135 0 255 52t206 141t136 214.5t50 266.5q0 215 -135.5 355t-356.5 140q-181 0 -329.5 -88.5t-233 -243t-84.5 -342.5z" />
<glyph unicode="&#x153;" horiz-adv-x="2058" d="M162 430q0 155 78 285t207 203t276 73q152 0 267.5 -78t166.5 -206q73 130 199.5 207t273.5 77q198 0 325.5 -127t127.5 -313q0 -42 -10 -94h-887v-23q0 -151 100 -255.5t266 -104.5q96 0 184.5 42t153.5 117l72 -59q-82 -94 -191 -144t-235 -50q-147 0 -259.5 78.5 t-160.5 207.5q-74 -131 -206 -208.5t-285 -77.5q-198 0 -330.5 131.5t-132.5 318.5zM262 434q0 -148 104 -253t273 -105q116 0 218.5 59.5t166 166.5t63.5 235q0 96 -44 177.5t-131 132t-201 50.5q-116 0 -219 -60t-166.5 -167.5t-63.5 -235.5zM1196 539h786 q0 151 -98 254.5t-266 103.5q-146 0 -266.5 -100.5t-155.5 -257.5z" />
<glyph unicode="&#x178;" horiz-adv-x="1234" d="M272 1329h115l340 -676l578 676h122l-659 -770l-98 -559h-105l99 559zM616 1546l27 154h152l-27 -154h-152zM1008 1546l28 154h152l-29 -154h-151z" />
<glyph unicode="&#x2c6;" horiz-adv-x="1228" d="M332 1182l373 262h32l283 -262l-62 -68l-245 223l-338 -231z" />
<glyph unicode="&#x2dc;" horiz-adv-x="1228" d="M330 1180q12 90 70.5 144t144.5 54q45 0 87 -18t69 -40t64.5 -40t74.5 -18q53 0 86.5 28t42.5 80h82q-13 -92 -69.5 -145.5t-139.5 -53.5q-47 0 -90.5 18.5t-70.5 40t-63 40t-71 18.5q-114 0 -133 -108h-84z" />
<glyph unicode="&#x2000;" horiz-adv-x="932" />
<glyph unicode="&#x2001;" horiz-adv-x="1864" />
<glyph unicode="&#x2002;" horiz-adv-x="932" />
<glyph unicode="&#x2003;" horiz-adv-x="1864" />
<glyph unicode="&#x2004;" horiz-adv-x="621" />
<glyph unicode="&#x2005;" horiz-adv-x="466" />
<glyph unicode="&#x2006;" horiz-adv-x="310" />
<glyph unicode="&#x2007;" horiz-adv-x="310" />
<glyph unicode="&#x2008;" horiz-adv-x="233" />
<glyph unicode="&#x2009;" horiz-adv-x="372" />
<glyph unicode="&#x200a;" horiz-adv-x="103" />
<glyph unicode="&#x2010;" horiz-adv-x="823" d="M213 489l16 99h572l-19 -99h-569z" />
<glyph unicode="&#x2011;" horiz-adv-x="823" d="M213 489l16 99h572l-19 -99h-569z" />
<glyph unicode="&#x2012;" horiz-adv-x="823" d="M213 489l16 99h572l-19 -99h-569z" />
<glyph unicode="&#x2013;" horiz-adv-x="1095" d="M213 489l16 99h844l-16 -99h-844z" />
<glyph unicode="&#x2014;" horiz-adv-x="1480" d="M213 489l16 99h1229l-16 -99h-1229z" />
<glyph unicode="&#x2018;" horiz-adv-x="362" d="M283 1053l155 303h78l-117 -303h-116z" />
<glyph unicode="&#x2019;" horiz-adv-x="352" d="M289 1047l117 303h116l-153 -303h-80z" />
<glyph unicode="&#x201a;" horiz-adv-x="364" d="M47 -166l115 303h119l-156 -303h-78z" />
<glyph unicode="&#x201c;" horiz-adv-x="616" d="M283 1047l155 303h78l-117 -303h-116zM537 1047l153 303h78l-115 -303h-116z" />
<glyph unicode="&#x201d;" horiz-adv-x="604" d="M289 1047l117 303h116l-153 -303h-80zM543 1047l114 303h117l-153 -303h-78z" />
<glyph unicode="&#x201e;" horiz-adv-x="616" d="M47 -166l115 303h119l-156 -303h-78zM299 -166l117 303h116l-155 -303h-78z" />
<glyph unicode="&#x2022;" horiz-adv-x="698" d="M254 467l63 360h353l-64 -360h-352z" />
<glyph unicode="&#x2026;" horiz-adv-x="1132" d="M127 0l25 139h137l-25 -139h-137zM498 0l24 139h137l-24 -139h-137zM868 0l25 139h137l-24 -139h-138z" />
<glyph unicode="&#x202f;" horiz-adv-x="372" />
<glyph unicode="&#x2039;" horiz-adv-x="581" d="M164 477l332 336h112l-336 -340l209 -334h-102z" />
<glyph unicode="&#x203a;" horiz-adv-x="583" d="M141 139l336 342l-207 332h103l215 -336l-334 -338h-113z" />
<glyph unicode="&#x205f;" horiz-adv-x="466" />
<glyph unicode="&#x20ac;" horiz-adv-x="1247" d="M143 489l45 86h166q9 100 33 191h-170l45 86h152q84 228 262 363t405 135q190 0 318 -86l-62 -86q-61 38 -123 54.5t-147 16.5q-179 0 -322.5 -107.5t-218.5 -289.5h625l-45 -86h-610q-28 -102 -33 -191h571l-45 -86h-528q6 -189 108 -300t293 -111q151 0 295 72l31 -87 q-167 -86 -342 -86q-227 0 -359.5 142.5t-134.5 369.5h-209z" />
<glyph unicode="&#x2122;" horiz-adv-x="1454" d="M283 1249l14 80h524l-14 -80h-217l-94 -526h-88l94 526h-219zM819 723l109 606h123l88 -512l268 512h129l-106 -606h-84l86 483h-9l-254 -483h-90l-84 483h-8l-84 -483h-84z" />
<glyph unicode="&#x25fc;" horiz-adv-x="972" d="M0 0v973h973v-973h-973z" />
</font>
</defs>
</svg>
